Crazy World Only 4 You

Sorry For The Inconvenience. If You are facing link dead or no google drive file access then inform us via comment

Latest Updates

Monday, 16 July 2018

July 16, 2018

Raazi (2018) Hindi 720p AMZN WEB-DL x264 AAC Esubs ~Katyayan Exclusive~


Poster

5de1505ab1ebaff52a7d1f24cb943529.jpg


iMDB
Imdb Picture Title: Raazi
Year: 2018
Runtime: 138 minutes
Votes: 131
Rating: 7.9/10
Language: Hindi
Country: India
All Genres: Action, Crime, Thriller
Plot Outline: Raazi is a 2018 period-thriller film directed by Meghna Gulzar, starring Alia Bhatt and Vicky Kaushal in lead roles. The story revolves around an Indian spy married to a Pakistani man during the Indo-Pakistan War of 1971.
Director: Meghna Gulzar
Writing By: Harinder S. Sikka,Meghna Gulzar,Bhavani Iyer,Meghna Gulzar,
Produced By: Vineet Jain,Hiroo Johar,Karan Johar,Apoorva Mehta,Somen Mishra,Priti Shahani,Somesh Shivraj,
Music: Shankar Mahadevan Loy Mendonsa Ehsaan Noorani Tubby
Cast:
Alia Bhatt as Sehmat
Vicky Kaushal as Iqbal Syed
Jaideep Ahlawat as Khalid Mir
Amruta Khanvilkar as Munira
Soni Razdan as Teji
Rajit Kapoor as Hidayat Khan
Pallavi Batra as Mitali
Arif Zakaria as Abdul
Shishir Sharma as Brigadier Syed
Ashwath Bhatt as Mehboob
Trailers:
Raazi Trailer



Details
Name:Raazi (2018) Hindi 720p AMZN WEB-DL x264 AAC Esubs ~Katyayan Exclusive~
Description:

Raazi (2018) Hindi 720p AMZN WEB-DL x264 AAC Esubs ~Katyayan Exclusive~

7fdf9e2827fc2c331b6890b1281f180e.jpg



Format                                   : MPEG-4
Format profile                           : Base Media
Codec ID                                 : isom (isom/iso2/avc1/mp41)
File size                                : 1.32 GiB
Duration                                 : 2 h 17 min
Overall bit rate                         : 1 381 kb/s
Movie name                               : Raazi
Writing application                      : Lavf58.12.100

Video
ID                                       : 1
Format                                   : AVC
Format/Info                              : Advanced Video Codec
Format profile                           : High@L3.1
Format settings                          : CABAC / 4 Ref Frames
Format settings, CABAC                   : Yes
Format settings, RefFrames               : 4 frames
Codec ID                                 : avc1
Codec ID/Info                            : Advanced Video Coding
Duration                                 : 2 h 17 min
Bit rate                                 : 1 241 kb/s
Width                                    : 1 280 pixels
Height                                   : 544 pixels
Display aspect ratio                     : 2.35:1
Frame rate mode                          : Constant
Frame rate                               : 25.000 FPS
Color space                              : YUV
Chroma subsampling                       : 4:2:0
Bit depth                                : 8 bits
Scan type                                : Progressive
Bits/(Pixel*Frame)                       : 0.071
Stream size                              : 1.19 GiB (90%)
Writing library                          : x264 core 148 r2643 5c65704

Audio
ID                                       : 2
Format                                   : AAC
Format/Info                              : Advanced Audio Codec
Format profile                           : LC
Codec ID                                 : mp4a-40-2
Duration                                 : 2 h 17 min
Bit rate mode                            : Constant
Bit rate                                 : 128 kb/s
Channel(s)                               : 2 channels
Channel(s)_Original                      : 1 channel
Channel positions                        : Front: C
Sampling rate                            : 44.1 kHz
Frame rate                               : 43.066 FPS (1024 SPF)
Compression mode                         : Lossy
Stream size                              : 126 MiB (9%)
Language                                 : Hindi
Default                                  : Yes
Alternate group                          : 1


      
55bac19dd0f8ac1a68b094da09b4ee03.jpg
Category:Movies > Bollywood
Lang:Hindi
Total Size:1.32 GB



|| Download This Movie Via Single Resumable Links Size: 1.32 GB ||

Direct-1 Google Drive | Direct-2 | Direct-3 |

Watch Online Click Here

July 16, 2018

Karenjit Kaur - The Untold Story of Sunny Leone (2018) Hindi S01 720p WEB-DL AVC - AAC - 1.6GB


Poster
9e8b732195ea76dc883369b735b5240a.jpg


iMDB

Title: Karenjit Kaur - The Untold Story of Sunny Leone
Year: 2018
Language: English, Hindi
Country: India
All Genres: Biography
Plot Outline: The life story of Indian-Canadian actress and former adult film star, Sunny Leone.
Tagline: The untold story of Sunny Leone.
Director: Aditya Datt
Writing By: Niranjan Kaushik,Karan Shrikant Sharma,
Produced By: Kishor Arora,Akash Chawla,Shareen Mantri Kedia,Kanwal Kohli,Angarika Mantri,Sanjay Mehta,Arunava Sengupta,Amit Vij,Muhitt Agarwaal,
Music: Rachita Arora
Cast:
Bijay Jasjit Anand as 10 episodes, 2018
Raj Arjun as 10 episodes, 2018
Karamvir Lamba as 10 episodes, 2018
Sunny Leone as Herself 10 episodes, 2018
Vansh Pradhan as 10 episodes, 2018
Rysa Saujani as 10 episodes, 2018
Grusha Singh as 10 episodes, 2018
Marc Buckner as Daniel 3 episodes, 2018
Sujata Sehgal as Pammi Bua 3 episodes, 2018
Jan Bostock as owner of Penthouse 1 episode, 2018


Details
Name:Karenjit Kaur - The Untold Story of Sunny Leone (2018) Hindi S01 720p WEB-DL AVC - AAC - 1.6GB
Description:
Karenjit Kaur - The Untold Story of Sunny Leone (2018) Hindi S01 720p WEB-DL AVC - AAC - 1.6GB

44cfe0993b43e1f5eb2d1528fe09a02e.jpg

Specs

Source : ZEE5
 

File size : 1.61 GiB
Duration : 3:25:41
Overall bit rate : 1 118 kb/s
Episodes : 10


Screens:

082786187f76051d3dfa91f72284e29c.jpg
Category:TV > Indian
Lang:Hindi
Total Size:1.61 GB



|| Download This Tv Show Via Single Resumable Links Size: 1.61 GB ||

Direct-1 Google Drive | Direct-2 | Direct-3 |

Watch Online Click Here

  PassWord :- Sworld4u

July 16, 2018

Karenjit Kaur - The Untold Story of Sunny Leone (2018) Hindi S01 1080p WEB-DL H264 AAC 2.0 ESubs - DTOne


Poster
9e8b732195ea76dc883369b735b5240a.jpg


iMDB

Title: Karenjit Kaur - The Untold Story of Sunny Leone
Year: 2018
Language: English, Hindi
Country: India
All Genres: Biography
Plot Outline: The life story of Indian-Canadian actress and former adult film star, Sunny Leone.
Tagline: The untold story of Sunny Leone.
Director: Aditya Datt
Writing By: Niranjan Kaushik,Karan Shrikant Sharma,
Produced By: Kishor Arora,Akash Chawla,Shareen Mantri Kedia,Kanwal Kohli,Angarika Mantri,Sanjay Mehta,Arunava Sengupta,Amit Vij,Muhitt Agarwaal,
Music: Rachita Arora
Cast:
Bijay Jasjit Anand as 10 episodes, 2018
Raj Arjun as 10 episodes, 2018
Karamvir Lamba as 10 episodes, 2018
Sunny Leone as Herself 10 episodes, 2018
Vansh Pradhan as 10 episodes, 2018
Rysa Saujani as 10 episodes, 2018
Grusha Singh as 10 episodes, 2018
Marc Buckner as Daniel 3 episodes, 2018
Sujata Sehgal as Pammi Bua 3 episodes, 2018
Jan Bostock as owner of Penthouse 1 episode, 2018


Details
Name:Karenjit Kaur - The Untold Story of Sunny Leone (2018) Hindi S01 1080p WEB-DL H264 AAC 2.0 ESubs - DTOne
Description:
Karenjit Kaur - The Untold Story of Sunny Leone (2018) Hindi S01 1080p WEB-DL H264 AAC 2.0 ESubs - DTOne

44cfe0993b43e1f5eb2d1528fe09a02e.jpg

Specs

Source : ZEE5

 
File size : 400 ~ 500 MiB
Duration : 20 ~ 27 min
Overall bit rate : 3 000 kb/s
Episodes : 10

Format                                   : Matroska
Format version                           : Version 4 / Version 2
File size                                : 558 MiB
Duration                                 : 26 min 40 s
Overall bit rate                         : 2 926 kb/s
Movie name                               : Karenjit.Kaur.S01E03
Encoded date                             : UTC 2018-07-15 20:29:58
Writing application                      : mkvmerge v25.0.0 ('Prog Noir') 64-bit
Writing library                          : libebml v1.3.6 + libmatroska v1.4.9
Cover                                    : Yes
Attachments                              : Cover.jpg

Video
ID                                       : 1
Format                                   : AVC
Format/Info                              : Advanced Video Codec
Format profile                           : High@L4
Format settings                          : CABAC / 4 Ref Frames
Format settings, CABAC                   : Yes
Format settings, ReFrames                : 4 frames
Codec ID                                 : V_MPEG4/ISO/AVC
Duration                                 : 26 min 40 s
Bit rate                                 : 3 000 kb/s
Width                                    : 1 920 pixels
Height                                   : 1 080 pixels
Display aspect ratio                     : 16:9
Frame rate mode                          : Variable
Frame rate                               : 24.907 FPS
Color space                              : YUV
Chroma subsampling                       : 4:2:0
Bit depth                                : 8 bits
Scan type                                : Progressive
Bits/(Pixel*Frame)                       : 0.058
Stream size                              : 545 MiB (98%)
Writing library                          : x264 core 152 r2854 e9a5903
Default                                  : Yes
Forced                                   : No

Audio
ID                                       : 2
Format                                   : AAC
Format/Info                              : Advanced Audio Codec
Format profile                           : LC
Codec ID                                 : A_AAC-2
Duration                                 : 26 min 40 s
Bit rate                                 : 64.1 kb/s
Channel(s)                               : 2 channels
Channel positions                        : Front: L R
Sampling rate                            : 48.0 kHz
Frame rate                               : 46.875 FPS (1024 SPF)
Compression mode                         : Lossy
Delay relative to video                  : -80 ms
Stream size                              : 12.2 MiB (2%)
Language                                 : Hindi
Default                                  : Yes
Forced                                   : No

Text
ID                                       : 3
Format                                   : UTF-8
Codec ID                                 : S_TEXT/UTF8
Codec ID/Info                            : UTF-8 Plain Text
Duration                                 : 24 min 27 s
Bit rate                                 : 44 b/s
Count of elements                        : 222
Stream size                              : 8.03 KiB (0%)
Language                                 : English
Default                                  : Yes
Forced                                   : No


Screens:





A 10th Anniversary Special Exclusive Release... 
Category:TV > Indian
Lang:Hindi
Total Size:4.66 GB



|| Download This Tv Show Via Single Resumable Links Size: 4.66 GB ||

Direct-1 Google Drive |

  PassWord :- Sworld4u

July 16, 2018

Raazi (2018) Hindi 1080p WEB-DL H264 AAC 2.0 Esubs - DTOne


Poster

5de1505ab1ebaff52a7d1f24cb943529.jpg


iMDB
Imdb Picture Title: Raazi
Year: 2018
Runtime: 138 minutes
Votes: 131
Rating: 7.9/10
Language: Hindi
Country: India
All Genres: Action, Crime, Thriller
Plot Outline: Raazi is a 2018 period-thriller film directed by Meghna Gulzar, starring Alia Bhatt and Vicky Kaushal in lead roles. The story revolves around an Indian spy married to a Pakistani man during the Indo-Pakistan War of 1971.
Director: Meghna Gulzar
Writing By: Harinder S. Sikka,Meghna Gulzar,Bhavani Iyer,Meghna Gulzar,
Produced By: Vineet Jain,Hiroo Johar,Karan Johar,Apoorva Mehta,Somen Mishra,Priti Shahani,Somesh Shivraj,
Music: Shankar Mahadevan Loy Mendonsa Ehsaan Noorani Tubby
Cast:
Alia Bhatt as Sehmat
Vicky Kaushal as Iqbal Syed
Jaideep Ahlawat as Khalid Mir
Amruta Khanvilkar as Munira
Soni Razdan as Teji
Rajit Kapoor as Hidayat Khan
Pallavi Batra as Mitali
Arif Zakaria as Abdul
Shishir Sharma as Brigadier Syed
Ashwath Bhatt as Mehboob
Trailers:
Raazi Trailer



Details
Name:Raazi (2018) Hindi 1080p WEB-DL H264 AAC 2.0 Esubs - DTOne
Description:

Raazi (2018) Hindi 1080p WEB-DL H264 AAC 2.0 Esubs - DTOne

7fdf9e2827fc2c331b6890b1281f180e.jpg

Specs

Source : AMZN

 
ormat                                   : Matroska
Format version                           : Version 4 / Version 2
File size                                : 6.39 GiB
Duration                                 : 2 h 17 min
Overall bit rate                         : 6 674 kb/s
Movie name                               : Raazi
Encoded date                             : UTC 2018-07-15 18:40:38
Writing application                      : mkvmerge v25.0.0 ('Prog Noir') 64-bit
Writing library                          : libebml v1.3.6 + libmatroska v1.4.9
Cover                                    : Yes
Attachments                              : Cover.jpg

Video
ID                                       : 1
Format                                   : AVC
Format/Info                              : Advanced Video Codec
Format profile                           : Main@L4
Format settings                          : CABAC / 3 Ref Frames
Format settings, CABAC                   : Yes
Format settings, ReFrames                : 3 frames
Codec ID                                 : V_MPEG4/ISO/AVC
Duration                                 : 2 h 17 min
Bit rate                                 : 6 375 kb/s
Width                                    : 1 920 pixels
Height                                   : 816 pixels
Display aspect ratio                     : 2.35:1
Frame rate mode                          : Constant
Frame rate                               : 23.976 (23976/1000) FPS
Color space                              : YUV
Chroma subsampling                       : 4:2:0
Bit depth                                : 8 bits
Scan type                                : Progressive
Bits/(Pixel*Frame)                       : 0.170
Stream size                              : 6.11 GiB (96%)
Default                                  : No
Forced                                   : No

Audio
ID                                       : 2
Format                                   : AAC
Format/Info                              : Advanced Audio Codec
Format profile                           : LC
Codec ID                                 : A_AAC-2
Duration                                 : 2 h 17 min
Bit rate                                 : 296 kb/s
Channel(s)                               : 2 channels
Channel positions                        : Front: L R
Sampling rate                            : 48.0 kHz
Frame rate                               : 46.875 FPS (1024 SPF)
Compression mode                         : Lossy
Stream size                              : 290 MiB (4%)
Language                                 : Hindi
Default                                  : Yes
Forced                                   : No

Text
ID                                       : 3
Format                                   : UTF-8
Codec ID                                 : S_TEXT/UTF8
Codec ID/Info                            : UTF-8 Plain Text
Duration                                 : 2 h 8 min
Bit rate                                 : 41 b/s
Count of elements                        : 1354
Stream size                              : 39.5 KiB (0%)
Language                                 : English
Default                                  : Yes
Forced                                   : No


Screens:





A 10th Anniversary Special Exclusive Release...
Category:Movies > Bollywood
Lang:Hindi
Total Size:6.39 GB



|| Download This Movie Via Single Resumable Links Size: 6.39 GB ||

Direct-1 Google Drive | Direct-2 | Direct-3 |

Watch Online Click Here

July 16, 2018

Raazi (2018) Hindi 720p AMZN WEB-DL AVC AAC DD 2.0 Esubs Team Jio


Poster

5de1505ab1ebaff52a7d1f24cb943529.jpg


iMDB
Imdb Picture Title: Raazi
Year: 2018
Runtime: 138 minutes
Votes: 131
Rating: 7.9/10
Language: Hindi
Country: India
All Genres: Action, Crime, Thriller
Plot Outline: Raazi is a 2018 period-thriller film directed by Meghna Gulzar, starring Alia Bhatt and Vicky Kaushal in lead roles. The story revolves around an Indian spy married to a Pakistani man during the Indo-Pakistan War of 1971.
Director: Meghna Gulzar
Writing By: Harinder S. Sikka,Meghna Gulzar,Bhavani Iyer,Meghna Gulzar,
Produced By: Vineet Jain,Hiroo Johar,Karan Johar,Apoorva Mehta,Somen Mishra,Priti Shahani,Somesh Shivraj,
Music: Shankar Mahadevan Loy Mendonsa Ehsaan Noorani Tubby
Cast:
Alia Bhatt as Sehmat
Vicky Kaushal as Iqbal Syed
Jaideep Ahlawat as Khalid Mir
Amruta Khanvilkar as Munira
Soni Razdan as Teji
Rajit Kapoor as Hidayat Khan
Pallavi Batra as Mitali
Arif Zakaria as Abdul
Shishir Sharma as Brigadier Syed
Ashwath Bhatt as Mehboob
Trailers:
Raazi Trailer



Details
Name:Raazi (2018) Hindi 1080p AMZN WEB-DL AVC AAC DD 5.1 Esubs Team Jio
Description:

Raazi (2018) Hindi 1080p AMZN WEB-DL AVC AAC DD 5.1 Esubs Team Jio

7fdf9e2827fc2c331b6890b1281f180e.jpg



Format                                   : MPEG-4
Format profile                           : Base Media
Codec ID                                 : isom (isom/iso2/avc1/mp41)
File size                                : 1 010 MiB
Duration                                 : 2 h 17 min
Overall bit rate                         : 1 030 kb/s
Writing application                      : Lavf58.12.100

Video
ID                                       : 1
Format                                   : AVC
Format/Info                              : Advanced Video Codec
Format profile                           : High@L3.1
Format settings                          : CABAC / 4 Ref Frames
Format settings, CABAC                   : Yes
Format settings, ReFrames                : 4 frames
Codec ID                                 : avc1
Codec ID/Info                            : Advanced Video Coding
Duration                                 : 2 h 17 min
Bit rate                                 : 896 kb/s
Width                                    : 1 274 pixels
Height                                   : 720 pixels
Display aspect ratio                     : 16:9
Frame rate mode                          : Constant
Frame rate                               : 25.000 FPS
Color space                              : YUV
Chroma subsampling                       : 4:2:0
Bit depth                                : 8 bits
Scan type                                : Progressive
Bits/(Pixel*Frame)                       : 0.039
Stream size                              : 878 MiB (87%)
Writing library                          : x264 core 148 r2643 5c65704
Encoding settings                        : cabac=1 / ref=1 / deblock=1:0:0 / analyse=0x3:0x3 / me=dia / subme=1 / psy=1 / psy_rd=1.00:0.00 / mixed_ref=0 / me_range=16 / chroma_me=1 / trellis=0 / 8x8dct=1 / cqm=0 / deadzone=21,11 / fast_pskip=1 / chroma_qp_offset=0 / threads=12 / lookahead_threads=2 / sliced_threads=0 / nr=0 / decimate=1 / interlaced=0 / bluray_compat=0 / constrained_intra=0 / bframes=3 / b_pyramid=2 / b_adapt=1 / b_bias=0 / direct=1 / weightb=1 / open_gop=0 / weightp=1 / keyint=250 / keyint_min=25 / scenecut=40 / intra_refresh=0 / rc=abr / mbtree=0 / bitrate=896 / ratetol=1.0 / qcomp=0.60 / qpmin=0 / qpmax=69 / qpstep=4 / ip_ratio=1.40 / pb_ratio=1.30 / aq=1:1.00

Audio
ID                                       : 2
Format                                   : MPEG Audio
Format version                           : Version 1
Format profile                           : Layer 3
Codec ID                                 : mp4a-6B
Duration                                 : 2 h 17 min
Duration_LastFrame                       : -4 ms
Bit rate mode                            : Constant
Bit rate                                 : 128 kb/s
Channel(s)                               : 2 channels
Channel(s)_Original                      : 1 channel
Sampling rate                            : 44.1 kHz
Compression mode                         : Lossy
Stream size                              : 126 MiB (12%)
Title                                    : Track1
Default                                  : Yes
Alternate group                          : 1



      
drbAo.th.png drC1j.th.png dr3ds.th.png drEeH.th.png drNpV.th.png drpvK.th.png drRrz.th.png dr4Cc.th.png
Category:Movies > Bollywood
Lang:Hindi
Total Size:1,010.41 MB



|| Download This Movie Via Single Resumable Links Size: 1010 MB ||

Direct-1 Google Drive | Direct-2 | Direct-3 |

Watch Online Click Here