Crazy World Only 4 You

Sorry For The Inconvenience. If You are facing link dead or no google drive file access then inform us via comment

Latest Updates

Friday, 17 August 2018

August 17, 2018

Athadu (2005) 720p UNCUT HDRip x264 Eng Subs [Dual Audio] [Hindi DD 2.0 - Telugu DD 5.1] Exclusive By -=!Dr.STAR!=-


Poster


iMDB
Imdb Picture Title: Athadu
Year: 2005
Runtime: 172 minutes
Votes: 9422
Rating: 8.3/10
Language: Telugu, Hindi
Country: India
All Genres: Action, Comedy, Musical, Thriller
Plot Outline: To receive a sympathy vote, a crooked politician plans his own assassination attempt. Nandu is hired to merely wound the politician, but someone else pulls the trigger first. Framed for murder, Nandu flees and meets Pardhu, a man returning home after a long absence. The young man is killed in the police crossfire meant for Nandu. Nandu assumes Pardhu's identity and his new "cousin" has a romantic interest in him... Written by L. Hamre
Director: Trivikram Srinivas
Writing By: Trivikram Srinivas,
Produced By: Kishore Duggirala,Murali Mohan,M.R. Rammohan,
Music: Mani Sharma
Cast:
Mahesh Babu as Nanda Gopal / Nandu / Pardhu
Trisha Krishnan as Puri
Prakash Raj as CBI investigator Anjaneya Prasad
Sonu Sood as Malli
Srinivasa Rao Kota as Bajji Reddy
Nassar as Grandfather
Giri Babu as
Brahmanandam as Kittu - jaffa
Dharmavarapu Subramanyam as
Ajay as Siva Reddy's Son



Details
Name:Athadu (2005) 720p UNCUT HDRip x264 Eng Subs [Dual Audio] [Hindi DD 2.0 - Telugu DD 5.1] Exclus...
Description:
Athadu (2005) 720p UNCUT HDRip x264 Eng Subs [Dual Audio] [Hindi DD 2.0 - Telugu DD 5.1]

Exclusive By -=!Dr.STAR!=-

Cheetah - The Power of One !!!


[-=!Dr.STAR!=-]

Perfect Synchronization at its Best - Brought to you By STAR...... Doctor STAR


 

:::: PLOT :::::
A gunman for hire is framed for murder, and assumes a dead man's identity while hiding from the police.

::::Info::::

---Movie Details---
General
Format : Matroska
Format version : Version 4 / Version 2
File size : 1.67 GiB
Duration : 2h 52mn
Overall bit rate : 1 387 Kbps

Video
ID : 1
Format : AVC
Format/Info : Advanced Video Codec
Codec ID : V_MPEG4/ISO/AVC
Nominal bit rate : 1 000 Kbps
Width : 1 280 pixels
Height : 592 pixels
Display aspect ratio : 2.2:1
Frame rate mode : Variable
Original frame rate : 23.976 fps
Title : -=!Dr.STAR!=-
Writing library : x264 core 79

Audio #1
ID : 2
Format : AC-3
Format profile : Dolby Digital
Codec ID : A_AC3
Duration : 2h 52mn
Bit rate mode : Constant
Bit rate : 192 Kbps
Channel(s) : 2 channels
Channel positions : Front: L R
Sampling rate : 48.0 KHz
Title : -=!Dr.STAR!=-
Language : Hindi

Audio #2
ID : 3
Format : AAC
Format/Info : Advanced Audio Codec
Codec ID : A_AAC
Duration : 2h 52mn
Channel(s) : 6 channels
Channel positions : Front: L C R, Side: L R, LFE
Sampling rate : 48.0 KHz
Title : -=!Dr.STAR!=-
Language : Telugu

Text
ID : 4
Format : UTF-8
Codec ID : S_TEXT/UTF8
Codec ID/Info : UTF-8 Plain Text
Title : -=!Dr.STAR!=-
Language : English


::::ScreenShots::::

                                                           
Category:Movies > South Dub
Lang:Hindi
Total Size:1.68 GB



|| Download This Movie Via Single Resumable Links Size: 1.67 GB ||

Direct-1 Google Drive | Direct-2 | Direct-3 |

Watch Online Click Here

August 17, 2018

Avengers Infinity War (2018) BluRay 720p x264 M.Audios [Hindi + Eng + Tamil + Telugu ] ESub ~TMV~


Poster


iMDB
Imdb Picture Title: Avengers: Infinity War
Year: 2018
Language: English
Country: USA
All Genres: Action, Adventure, Fantasy, Sci-Fi
Plot Outline: The plot is unknown at this time.
Director: Anthony Russo
Joe Russo
Writing By: Jack Kirby,Christopher Markus,Stephen McFeely,Jim Starlin,
Produced By: Victoria Alonso,Mitchell Bell,Ari Costa,Louis D'Esposito,Jon Favreau,Kevin Feige,Michael Grillo,James Gunn,Stan Lee,
Music: Alan Silvestri
Plot:
The plot is unknown at this time.

Cast:
Tom Holland as Peter Parker / Spider-Man
Karen Gillan as Nebula
Scarlett Johansson as Natasha Romanoff / Black Widow
Brie Larson as Carol Danvers / Captain Marvel
Robert Downey Jr. as Tony Stark / Iron Man
Elizabeth Olsen as Wanda Maximoff / Scarlet Witch
Chris Pratt as Peter Quill / Star-Lord
Chris Evans as Steve Rogers / Captain America
Cobie Smulders as Maria Hill
Benedict Cumberbatch as Dr. Stephen Strange
Trailers:
First-Look Featurette



Details
Name:Avengers: Infinity War (2018) BluRay 720p x264 Original M.Audios [Telugu + Tamil + Hindi + Eng...
Description:
Avengers: Infinity War 2018 BluRay 720p x264 Original M.Audios [Telugu + Tamil + Hindi + Eng] - 2.8GB - ESub



Source :- TMV


Format                                   : Matroska
Format version                           : Version 4 / Version 2
File size                                : 1.57 GiB
Duration                                 : 2 h 29 min
Overall bit rate                         : 1 501 kb/s

Video
ID                                       : 1
Format                                   : AVC
Format/Info                              : Advanced Video Codec
Format profile                           : High@L4.1
Format settings                          : CABAC / 4 Ref Frames
Format settings, CABAC                   : Yes
Format settings, ReFrames                : 4 frames
Codec ID                                 : V_MPEG4/ISO/AVC
Duration                                 : 2 h 29 min
Bit rate                                 : 1 050 kb/s
Width                                    : 1 280 pixels
Height                                   : 534 pixels
Display aspect ratio                     : 2.40:1
Original display aspect ratio            : 2.40:1
Frame rate mode                          : Constant
Frame rate                               : 23.976 (24000/1001) FPS
Color space                              : YUV
Chroma subsampling                       : 4:2:0
Bit depth                                : 8 bits
Scan type                                : Progressive
Bits/(Pixel*Frame)                       : 0.064
Stream size                              : 1.10 GiB (70%)
Writing library                          : x264 core 155
Language                                 : English
Default                                  : Yes
Forced                                   : Yes

Audio #1
ID                                       : 2
Format                                   : MPEG Audio
Format version                           : Version 1
Format profile                           : Layer 3
Format settings                          : Joint stereo
Codec ID                                 : A_MPEG/L3
Codec ID/Hint                            : MP3
Duration                                 : 2 h 29 min
Bit rate mode                            : Constant
Bit rate                                 : 128 kb/s
Channel(s)                               : 2 channels
Sampling rate                            : 48.0 kHz
Frame rate                               : 41.667 FPS (1152 SPF)
Compression mode                         : Lossy
Stream size                              : 137 MiB (9%)
Language                                 : Telugu
Default                                  : Yes
Forced                                   : Yes

Audio #2
ID                                       : 3
Format                                   : MPEG Audio
Format version                           : Version 1
Format profile                           : Layer 3
Format settings                          : Joint stereo / MS Stereo
Codec ID                                 : A_MPEG/L3
Codec ID/Hint                            : MP3
Duration                                 : 2 h 29 min
Bit rate mode                            : Constant
Bit rate                                 : 128 kb/s
Channel(s)                               : 2 channels
Sampling rate                            : 48.0 kHz
Frame rate                               : 41.667 FPS (1152 SPF)
Compression mode                         : Lossy
Stream size                              : 137 MiB (9%)
Language                                 : Tamil
Default                                  : No
Forced                                   : No

Audio #3
ID                                       : 4
Format                                   : MPEG Audio
Format version                           : Version 1
Format profile                           : Layer 3
Format settings                          : Joint stereo / MS Stereo
Codec ID                                 : A_MPEG/L3
Codec ID/Hint                            : MP3
Duration                                 : 2 h 29 min
Bit rate mode                            : Constant
Bit rate                                 : 128 kb/s
Channel(s)                               : 2 channels
Sampling rate                            : 48.0 kHz
Frame rate                               : 41.667 FPS (1152 SPF)
Compression mode                         : Lossy
Stream size                              : 137 MiB (9%)
Language                                 : Hindi
Default                                  : No
Forced                                   : No

Audio #4
ID                                       : 5
Format                                   : MPEG Audio
Format version                           : Version 1
Format profile                           : Layer 3
Format settings                          : Joint stereo / MS Stereo
Codec ID                                 : A_MPEG/L3
Codec ID/Hint                            : MP3
Duration                                 : 2 h 29 min
Bit rate mode                            : Constant
Bit rate                                 : 64.0 kb/s
Channel(s)                               : 2 channels
Sampling rate                            : 44.1 kHz
Frame rate                               : 38.281 FPS (1152 SPF)
Compression mode                         : Lossy
Stream size                              : 68.4 MiB (4%)
Writing library                          : LAME3.98.2
Language                                 : English
Default                                  : No
Forced                                   : No

Text
ID                                       : 6
Format                                   : UTF-8
Codec ID                                 : S_TEXT/UTF8
Codec ID/Info                            : UTF-8 Plain Text
Duration                                 : 2 h 28 min
Bit rate                                 : 42 b/s
Count of elements                        : 1724
Stream size                              : 46.5 KiB (0%)
Language                                 : English
Default                                  : Yes
Forced                                   : Yes

           
Category:Movies > Hollywood Dub
Lang:Hindi
Total Size:1.57 GB



|| Download This Movie Via Single Resumable Links Size: 1.57 GB ||

Direct-1 Google Drive | Direct-2 | Direct-3 |

Watch Online Click Here

August 17, 2018

Avengers Infinity War (2018) BluRay 1080p x264 M.Audios [Hindi + Eng + Tamil + Telugu] ESub ~TMV~


Poster


iMDB
Imdb Picture Title: Avengers: Infinity War
Year: 2018
Language: English
Country: USA
All Genres: Action, Adventure, Fantasy, Sci-Fi
Plot Outline: The plot is unknown at this time.
Director: Anthony Russo
Joe Russo
Writing By: Jack Kirby,Christopher Markus,Stephen McFeely,Jim Starlin,
Produced By: Victoria Alonso,Mitchell Bell,Ari Costa,Louis D'Esposito,Jon Favreau,Kevin Feige,Michael Grillo,James Gunn,Stan Lee,
Music: Alan Silvestri
Plot:
The plot is unknown at this time.

Cast:
Tom Holland as Peter Parker / Spider-Man
Karen Gillan as Nebula
Scarlett Johansson as Natasha Romanoff / Black Widow
Brie Larson as Carol Danvers / Captain Marvel
Robert Downey Jr. as Tony Stark / Iron Man
Elizabeth Olsen as Wanda Maximoff / Scarlet Witch
Chris Pratt as Peter Quill / Star-Lord
Chris Evans as Steve Rogers / Captain America
Cobie Smulders as Maria Hill
Benedict Cumberbatch as Dr. Stephen Strange
Trailers:
First-Look Featurette



Details
Name:Avengers: Infinity War (2018) BluRay 1080p x264 Original M.Audios [Telugu + Tamil + Hindi + En...
Description:
Avengers: Infinity War 2018 BluRay 1080p x264 Original M.Audios [Telugu + Tamil + Hindi + Eng] - 2.8GB - ESub



Source :- TMV


Format                                   : Matroska
Format version                           : Version 4 / Version 2
File size                                : 2.79 GiB
Duration                                 : 2 h 29 min
Overall bit rate                         : 2 674 kb/s

Video
ID                                       : 1
Format                                   : AVC
Format/Info                              : Advanced Video Codec
Format profile                           : High@L4.1
Format settings                          : CABAC / 4 Ref Frames
Format settings, CABAC                   : Yes
Format settings, ReFrames                : 4 frames
Codec ID                                 : V_MPEG4/ISO/AVC
Duration                                 : 2 h 29 min
Bit rate                                 : 2 150 kb/s
Width                                    : 1 920 pixels
Height                                   : 800 pixels
Display aspect ratio                     : 2.40:1
Frame rate mode                          : Constant
Frame rate                               : 23.976 (24000/1001) FPS
Color space                              : YUV
Chroma subsampling                       : 4:2:0
Bit depth                                : 8 bits
Scan type                                : Progressive
Bits/(Pixel*Frame)                       : 0.058
Stream size                              : 2.24 GiB (80%)
Writing library                          : x264 core 155
Default                                  : Yes
Forced                                   : Yes

Audio #1
ID                                       : 2
Format                                   : MPEG Audio
Format version                           : Version 1
Format profile                           : Layer 3
Format settings                          : Joint stereo
Codec ID                                 : A_MPEG/L3
Codec ID/Hint                            : MP3
Duration                                 : 2 h 29 min
Bit rate mode                            : Constant
Bit rate                                 : 128 kb/s
Channel(s)                               : 2 channels
Sampling rate                            : 48.0 kHz
Frame rate                               : 41.667 FPS (1152 SPF)
Compression mode                         : Lossy
Delay relative to video                  : -43 ms
Stream size                              : 137 MiB (5%)
Language                                 : Telugu
Default                                  : Yes
Forced                                   : Yes

Audio #2
ID                                       : 3
Format                                   : MPEG Audio
Format version                           : Version 1
Format profile                           : Layer 3
Format settings                          : Joint stereo / MS Stereo
Codec ID                                 : A_MPEG/L3
Codec ID/Hint                            : MP3
Duration                                 : 2 h 29 min
Bit rate mode                            : Constant
Bit rate                                 : 128 kb/s
Channel(s)                               : 2 channels
Sampling rate                            : 48.0 kHz
Frame rate                               : 41.667 FPS (1152 SPF)
Compression mode                         : Lossy
Delay relative to video                  : -43 ms
Stream size                              : 137 MiB (5%)
Language                                 : Tamil
Default                                  : No
Forced                                   : No

Audio #3
ID                                       : 4
Format                                   : MPEG Audio
Format version                           : Version 1
Format profile                           : Layer 3
Format settings                          : Joint stereo / MS Stereo
Codec ID                                 : A_MPEG/L3
Codec ID/Hint                            : MP3
Duration                                 : 2 h 29 min
Bit rate mode                            : Constant
Bit rate                                 : 128 kb/s
Channel(s)                               : 2 channels
Sampling rate                            : 48.0 kHz
Frame rate                               : 41.667 FPS (1152 SPF)
Compression mode                         : Lossy
Delay relative to video                  : -43 ms
Stream size                              : 137 MiB (5%)
Language                                 : Hindi
Default                                  : No
Forced                                   : No

Audio #4
ID                                       : 5
Format                                   : AAC
Format/Info                              : Advanced Audio Codec
Format profile                           : LC
Codec ID                                 : A_AAC-2
Duration                                 : 2 h 29 min
Bit rate                                 : 137 kb/s
Channel(s)                               : 2 channels
Channel positions                        : Front: L R
Sampling rate                            : 48.0 kHz
Frame rate                               : 46.875 FPS (1024 SPF)
Compression mode                         : Lossy
Delay relative to video                  : -43 ms
Stream size                              : 146 MiB (5%)
Language                                 : English
Default                                  : No
Forced                                   : No

Text
ID                                       : 6
Format                                   : UTF-8
Codec ID                                 : S_TEXT/UTF8
Codec ID/Info                            : UTF-8 Plain Text
Duration                                 : 2 h 28 min
Bit rate                                 : 42 b/s
Count of elements                        : 1724
Stream size                              : 46.5 KiB (0%)
Language                                 : English
Default                                  : Yes
Forced                                   : Yes

           
Category:Movies > Hollywood Dub
Lang:Hindi
Total Size:2.79 GB



|| Download This Movie Via Single Resumable Links Size: 2.79 GB ||

Direct-1 Google Drive | Direct-2 | Direct-3 |

Watch Online Click Here