Crazy World Only 4 You

Sorry For The Inconvenience. If You are facing link dead or no google drive file access then inform us via comment

Latest Updates

Friday, 25 May 2018

May 25, 2018

The Hurricane Heist (2018) BluRay - 720p - Line Audios [Tamil + Hindi + Eng] - 1GB - ESub


Poster


iMDB
Imdb Picture Title: The Hurricane Heist
Year: 2018
Runtime: 102 minutes
Votes: 536
Rating: 4.7/10
Language: English
Country: USA
All Genres: Action, Thriller
Plot Outline: Thieves attempt a massive heist against the U.S. Treasury as a Category 5 hurricane approaches one of its Mint facilities.
Tagline: The ultimate storm for the perfect heist.
Director: Rob Cohen
Writing By: Carlos Davis,Jeff Dixon,Anthony Fingleton,Scott Windhauser,
Produced By: Byron Allen,Karen Elise Baldwin,Marina Bespalov,Sergei Bespalov,Tamara Birkemoe,Mark Borde,Alastair Burlingham,Chris Charalambous,Chris Conover,Mark Damon,Carlos Davis,Mark DeVitre,Moshe Diamant,Charlie Dombek,Sufo Evtimov,Anthony Fingleton,Carolyn Folks,Gregory Gavanski,Gabriel Georgiev,Peter Hampden,Phil Hunt,William J. Immerman,Jennifer Lucas,Norman Merry,Christopher Milburn,Compton Ross,Danny Roth,Nick Ruta,Jenna Sanz-Agero,Michael Tadross Jr.,Damiano Tucci,
Music: Lorne Balfe
Cast:
Toby Kebbell as Will
Maggie Grace as Casey
Ryan Kwanten as Breeze
Ralph Ineson as Perkins
Melissa Bolona as Sasha
Ben Cross as Dixon
Jamie Andrew Cutler as Clement Rice
Christian Contreras as Moreno
Jimmy Walker as Xander Rice
Ed Birch as Frears
Trailers:
Official Trailer



Details
Name:The Hurricane Heist (2018) BluRay - 720p - Line Audios [Tamil + Hindi + Eng] - 1GB - ESub
Description:

The Hurricane Heist (2018) BluRay - 720p - Line Audios [Tamil + Hindi + Eng] - 1GB - ESub


 

Format                      : Matroska
Format version              : Version 4 / Version 2
File size                   : 1.07 GiB
Duration                    : 1 h 43 min
Overall bit rate mode       : Variable
Overall bit rate            : 1 483 kb/s

Video
ID                          : 1
Format                      : AVC
Format/Info                 : Advanced Video Codec
Format profile              : High@L4.1
Format settings, CABAC      : Yes
Format settings, ReFrames   : 8 frames
Codec ID                    : V_MPEG4/ISO/AVC
Duration                    : 1 h 43 min
Bit rate                    : 1 190 kb/s
Width                       : 1 280 pixels
Height                      : 536 pixels
Display aspect ratio        : 2.40:1
Frame rate mode             : Constant
Frame rate                  : 23.976 (24000/1001) FPS
Color space                 : YUV
Chroma subsampling          : 4:2:0
Bit depth                   : 8 bits
Scan type                   : Progressive
Bits/(Pixel*Frame)          : 0.072
Stream size                 : 877 MiB (80%)
Writing library             : x264 core 155 r2893 b00bcaf
Language                    : English
Default                     : Yes
Forced                      : No
Color range                 : Limited
Color primaries             : BT.709
Transfer characteristics    : BT.709
Matrix coefficients         : BT.709

Audio #1
ID                          : 2
Format                      : MPEG Audio
Format version              : Version 1
Format profile              : Layer 3
Mode                        : Joint stereo
Mode extension              : MS Stereo
Codec ID                    : A_MPEG/L3
Codec ID/Hint               : MP3
Duration                    : 1 h 43 min
Bit rate mode               : Variable
Bit rate                    : 96.0 kb/s
Channel(s)                  : 2 channels
Sampling rate               : 48.0 kHz
Frame rate                  : 41.667 FPS (1152 spf)
Compression mode            : Lossy
Stream size                 : 68.5 MiB (6%)
Writing library             : LAME3.99r
Encoding settings           : -m j -V 4 -q 3 -lowpass 15.1 --abr 96
Language                    : Tamil
Default                     : No
Forced                      : No

Audio #2
ID                          : 3
Format                      : MPEG Audio
Format version              : Version 1
Format profile              : Layer 3
Mode                        : Joint stereo
Mode extension              : MS Stereo
Codec ID                    : A_MPEG/L3
Codec ID/Hint               : MP3
Duration                    : 1 h 43 min
Bit rate mode               : Variable
Bit rate                    : 96.0 kb/s
Channel(s)                  : 2 channels
Sampling rate               : 48.0 kHz
Frame rate                  : 41.667 FPS (1152 spf)
Compression mode            : Lossy
Stream size                 : 71.8 MiB (7%)
Writing library             : LAME3.99r
Encoding settings           : -m j -V 4 -q 3 -lowpass 15.1 --abr 96
Language                    : Hindi
Default                     : Yes
Forced                      : Yes

Audio #3
ID                          : 4
Format                      : AAC
Format/Info                 : Advanced Audio Codec
Format profile              : HE-AAC / LC
Codec ID                    : A_AAC
Duration                    : 1 h 43 min
Bit rate                    : 100.0 kb/s
Channel(s)                  : 2 channels
Channel positions           : Front: L R
Sampling rate               : 48.0 kHz / 24.0 kHz
Frame rate                  : 23.438 FPS (1024 spf)
Compression mode            : Lossy
Delay relative to video     : 31 ms
Stream size                 : 73.7 MiB (7%)
Language                    : English
Default                     : No
Forced                      : No

Text
ID                          : 5
Format                      : UTF-8
Codec ID                    : S_TEXT/UTF8
Codec ID/Info               : UTF-8 Plain Text
Duration                    : 1 h 42 min
Bit rate                    : 53 b/s
Count of elements           : 1251
Stream size                 : 39.8 KiB (0%)
Language                    : English
Default                     : Yes
Forced                      : No

Menu
00:00:00.000                : :00:00:00.000
00:05:41.258                : :00:05:41.258
00:13:15.253                : :00:13:15.253
00:20:49.540                : :00:20:49.456
00:25:48.172                : :00:25:48.046
00:30:09.016                : :00:30:08.974
00:35:01.057                : :00:35:00.890
00:40:40.813                : :00:40:40.813
00:45:48.162                : :00:45:48.162
00:52:34.360                : :00:52:34.359
01:00:22.244                : :01:00:22.244
01:06:49.881                : :01:06:49.881
01:11:02.341                : :01:11:02.341
01:17:43.951                : :01:17:43.951
01:25:06.351                : :01:25:06.351
01:32:38.595                : :01:32:38.595


 
 
 
 
 
Category:Movies > Hollywood Dub
Lang:Hindi
Total Size:1.07 GB



|| Download This Movie Via Single Resumable Links Size: 1.07 GB ||

Direct-1 Google Drive | Direct-2 | Direct-3 |

Watch Online Click Here

May 25, 2018

Mercury (2018) 480p - (HindI) - UntoucheD WEB HQ - AVC - AAC - DTOne Exclusive


Poster


iMDB
Imdb Picture Title: Mercury
Year: 2018
Runtime: 106 minutes
Votes: 16
Rating: 7.6/10
Country: India
All Genres: Horror, Thriller
Plot Outline: A group of youngsters try to escape from a man who has fallen prey to mercury poisoning in this silent thriller.
Tagline: Silence is the most powerful scream
Director: Karthik Subbaraj

Produced By: Jayantilal Gada,M. Ashok Narayanan,Kaarthekeyen Santhanam,Kalyan Subramanian,
Music: Santhosh Narayanan
Cast:
Gajaraj as
Ramya Nambeeshan as
Prabhudheva as
Sananth Reddy as
Trailers:
Official 'Mercury' Teaser



Details
Name:Mercury (2018) 480p - (HindI) - UntoucheD WEB Hq - AVC - AAC - DTOne Exclusive
Description:
Mercury
(2018)
480P - UntoucheD WEB Hq - AVC - AAC - DTOne Exclusive



=====================================================
Video
ID                                      : 1
Format                                  : AVC
Format/Info                              : Advanced Video Codec
Format profile                          : Main@L3.1
Format settings                          : CABAC / 8 Ref Frames
Format settings, CABAC                  : Yes
Format settings, RefFrames              : 8 frames
Codec ID                                : avc1
Codec ID/Info                            : Advanced Video Coding
Duration                                : 1 h 35 min
Bit rate                                : 1 300 kb/s
Maximum bit rate                        : 5 139 kb/s
Width                                    : 720 pixels
Height                                  : 480 pixels
Display aspect ratio                    : 1.85:1
Frame rate mode                          : Constant
Frame rate                              : 24.000 FPS
Color space                              : YUV
Chroma subsampling                      : 4:2:0
Bit depth                                : 8 bits
Scan type                                : Progressive
Bits/(Pixel*Frame)                      : 0.157
Stream size                              : 889 MiB (95%)
Writing library                          : x264 core 146 r2538 121396c

Audio
ID                                      : 2
Format                                  : AAC
Format/Info                              : Advanced Audio Codec
Format profile                          : LC
Codec ID                                : mp4a-40-2
Duration                                : 1 h 35 min
Bit rate mode                            : Variable
Bit rate                                : 64.0 kb/s
Maximum bit rate                        : 126 kb/s
Channel(s)                              : 2 channels
Channel positions                        : Front: L R
Sampling rate                            : 48.0 kHz
Frame rate                              : 46.875 FPS (1024 SPF)
Compression mode                        : Lossy
Stream size                              : 43.8 MiB (5%)
Encoded date                            : UTC 2018-05-24 19:04:38
Tagged date                              : UTC 2018-05-24 19:09:29
=====================================================

SCREENSHOTS
===========
Category:Movies > Bollywood
Lang:Hindi
Total Size:935.74 MB





|| Download This Movie Via Single Resumable Links Size: 936 MB ||

Direct-1 Google Drive | Direct-2 | Direct-3 |

Watch Online Click Here

Thursday, 24 May 2018

May 24, 2018

Miss Tanakpur Haazir Ho (2015) Hindi 720p WEB HD x264 AAC


Poster
18ef67268642a7e1f5c2a3e805dfccc2.jpg


iMDB
Imdb Picture Title: Miss Tanakpur Haazir Ho
Year: 2015
Runtime: 154 minutes
Votes: 263
Rating: 5.3/10
Language: Hindi
Country: India
All Genres: Comedy, Crime, Family, Romance
Plot Outline: Miss Tanakpur is a political satire that unfolds in the backdrop of a Love-story set in a village of Haryana. In the villages of Haryana the Pradhans in general have insurmountable powers. ...
Tagline: It Happens Only In India
Director: Kapri Vinod
Writing By: Varun Gautam,Vinod Kapri,
Produced By: Kirshen Kumar,Umesh Kumar,Rajeev Sharma,Vinay Tiwari,Vinay Tiwari,
Cast:
Rahul Bagga as Arjun Prasad
Hrishitaa Bhatt as Maya
Annu Kapoor as Sualaal Gandass
Ravi Kishan as Bheema
Sanjay Mishra as Pandit
Om Puri as Matang SIngh


Details
Name:Miss Tanakpur Haazir Ho (2015) Hindi 720p WEB HD x264 AAC
Description:
Miss Tanakpur Haazir Ho (2015) Hindi 720p WEB HD x264 AAC
18ef67268642a7e1f5c2a3e805dfccc2.jpg

Size     1280x720
Length     02:08:59
Video codec     H264, 1075 Kbps
Audio codec     AAC, 56 Kbps
Container     MP4
Filesize     1.0 GB

ec07b2ab9e88cb9d014b7152bf84cb3f.jpg
Category:Movies > WEB-HD
Lang:Hindi
Total Size:1.03 GB



|| Download This Movie Via Single Resumable Links Size: 1.03 GB ||

Direct-1 Google Drive | Direct-2 | Direct-3 |

Watch Online Click Here

May 24, 2018

Table No.5 (2018) Ep01-06 Hindi 720p WEB HD - AVC - AAC

Table No.5 (ZEE5 Originals) - 6 Episodes - 720p WEBHD - DTOne


Source:-  DTOne

General
Complete name                            : Episode 2.mp4
Format                                   : MPEG-4
Format profile                           : Base Media
Codec ID                                 : isom (isom/iso2/avc1/mp41)
File size                                : 53 MiB
Duration                                 : 8 min 50 s
Overall bit rate                         : 901 kb/s
Writing application                      : Lavf56.40.101

Video
ID                                       : 1
Format                                   : AVC
Format/Info                              : Advanced Video Codec
Format profile                           : High@L4
Format settings                          : CABAC / 4 Ref Frames
Format settings, CABAC                   : Yes
Format settings, RefFrames               : 4 frames
Codec ID                                 : avc1
Codec ID/Info                            : Advanced Video Coding
Duration                                 : 8 min 50 s
Bit rate                                 : 834 kb/s
Nominal bit rate                         : 3 000 kb/s
Width                                    : 1 280 pixels
Height                                   : 720 pixels
Display aspect ratio                     : 16:9
Frame rate mode                          : Constant
Frame rate                               : 25.000 FPS
Color space                              : YUV
Chroma subsampling                       : 4:2:0
Bit depth                                : 8 bits
Scan type                                : Progressive
Bits/(Pixel*Frame)                       : 0.055
Stream size                              : 179 MiB (98%)
Writing library                          : x264 core 152 r2854 e9a5903

Audio
ID                                       : 2
Format                                   : AAC
Format/Info                              : Advanced Audio Codec
Format profile                           : LC
Codec ID                                 : mp4a-40-2
Duration                                 : 8 min 50 s
Bit rate mode                            : Constant
Bit rate                                 : 61.0 kb/s
Channel(s)                               : 2 channels
Channel positions                        : Front: L R
Sampling rate                            : 48.0 kHz
Frame rate                               : 46.875 FPS (1024 SPF)
Compression mode                         : Lossy
Stream size                              : 3.86 MiB (2%)
Default                                  : Yes
Alternate group                          : 1









May 24, 2018

I Love US (2018) Ep01-05 UntoucheD 720p WEB HD - AVC - AAC - E-Subs - DTOne Exclusive

 I Love US
(2018)
720p Episode 1-5 - UntoucheD WEB HD - AVC - AAC - E-Subs - DTOne Exclusive



=====================================================
Movie Info
Banner :
Year : 2018
Cast : Ali Merchant
Video: AVC
Audio : AAC
Genre : sex
Subtitles : English
Resolution : 1280 x 720
Source : DTOne
=====================================================

SCREENSHOTS
===========