Crazy World Only 4 You

Sorry For The Inconvenience. If You are facing link dead or no google drive file access then inform us via comment

Latest Updates

Tuesday, 14 August 2018

August 14, 2018

Windows 10 X64 Redstone 4 (4in1) en-US JULY-28 2018 {Gen2}

Windows 10 X64 Redstone 4 (4in1) en-US JULY-28 2018 {Gen2}


Windows 10 X64 Redstone 4 4in1 en-US JULY-28 2018
Version 1803 Build 17134.191

[ RELEASE INFO ]


* File: RS4X64.4in1.ENU.JULY2018.iso
* Size: 3,91GB
* Format: Bootable ISO

* SOURCE: 17134.1.180410-1804.RS4_RELEASE_CLIENTCONSUMER_OEMRET_X64FRE_EN-US

* CRC32: a59cb797
* MD5 : f10ff76bd53a425dc48ec895ea5d10c5
* SHA-1: e47b647b12bb55fca6eb59582bc595ec5910739a

[ CONTENTS ]

Integrated / Pre-installed:

* Servicing Stack Update:
* KB4343669
* CumulativeUpdate:
* KB4340917
* Flash Player Security Update:
* KB4338832

SetupComplete / Post-install:

* .NET Framework 3.5
* Windows Defender Updates

* LANGUAGE: ENGLISH US

[ EDITIONS INCLUDED ]

* Windows 10 Home - STD
* Windows 10 Home - W10
* Windows 10 Pro - - - STD
* Windows 10 Pro - - - W10

* STD = Standard installation - For those with own License Key
* W10 = Activated by W10 Digital License Activation Script

[ SCREENSHOTS ]

https://extraimage.net/image/sPrh

[ FEATURES ]

* UEFI-ready
* (Use attached Rufus USB-tool to make UEFI-bootable)
* Diagnostics and Recovery Toolset 10 (Microsoft DaRT)
* install.wim compressed to recovery format (install.esd)

[ INSTALLATION & INFORMATION ]

* Create bootable USB (highly recommended) with Rufus,
* (attached) or burn to DVD-R at slow speed.

* Hope you will enjoy this release!

:download:

|| Download This Software Via Single Resumable Links Size: 3.92 GB ||

Direct-1 | Direct-2 | Direct-3 |

August 14, 2018

The Gallows (2015) BDRip 1080p x264 Dual Audio [Hindi + English] AC3 DD 5.1 ESubs ~ Jitu


Poster


iMDB
Imdb Picture Title: The Gallows
Year: 2015
Runtime: 81 minutes
Votes: 16914
Rating: 4.2/10
Language: English
Country: USA
All Genres: Horror, Thriller
Plot Outline: Twenty years after an accident during a small town high school play results in death, students at the school resurrect the failed stage production in a misguided attempt to honor the anniversary of the tragedy - but ultimately find out that some things are better left alone.
Tagline: On July 10th, Hang With The Cool Kids.
Director: Travis Cluff
Chris Lofing
Writing By: Chris Lofing,Travis Cluff,
Produced By: Jason Blum,Guymon Casady,Travis Cluff,Judi Coleman,Alicia Esraelian,Brian Esraelian,Benjamin Forkner,Walter Hamada,Esther Holland,Debbie Hrdlicka,Steven Hrdlicka,Kathleen Hubka,Steven Imhoff,Brad Jacobson,Clark Jacobson,Paula Jacobson,Chris Lofing,Gabby Revilla Lugo,Dennis Mabry,Irene Mabry,Magdalena Mirelez,Dave Neustadter,James Rodgers,Vicki Rodgers,Couper Samuelson,Dean Schnider,
Music: Zach Lemmon
Cast:
Reese Mishler as Reese Houser
Pfeifer Brown as Pfeifer Ross
Ryan Shoos as Ryan Shoos
Cassidy Gifford as Cassidy Spilker
Travis Cluff as Mr. Schwendiman
Price T. Morgan as Stage Boy
Melissa Bratton as Pfeifer's Mom
Theo Burkhardt as Rick Houser
David Herrara as David the Janitor
Gannon Del Fierro as Gannon
Trailers:
Official Trailer

 

Details
Name:The Gallows (2015) BDRip 1080p x264 [Org BD 5.1 Hindi + DD 5.1 English] ESubs ~ Jitu
Description:
The Gallows (2015) 1080p BDRip x264 [Org BD 5.1 Hindi + DD 5.1 English] ESubs ~ Jitu



Org Untouched Bluray DD 5.1 640Kbps Hindi Audio



Format                                   : Matroska
Format version                           : Version 4 / Version 2
File size                                : 35.1 MiB
Duration                                 : 1 min 45 s
Overall bit rate                         : 2 784 kb/s

Video
ID                                       : 1
Format                                   : AVC
Format/Info                              : Advanced Video Codec
Format profile                           : High@L4.1
Format settings                          : CABAC / 4 Ref Frames
Format settings, CABAC                   : Yes
Format settings, RefFrames               : 4 frames
Codec ID                                 : V_MPEG4/ISO/AVC
Duration                                 : 1 min 45 s
Bit rate                                 : 1 905 kb/s
Nominal bit rate                         : 2 850 kb/s
Width                                    : 1 920 pixels
Height                                   : 1 080 pixels
Display aspect ratio                     : 16:9
Frame rate mode                          : Constant
Frame rate                               : 23.976 (24000/1001) FPS
Color space                              : YUV
Chroma subsampling                       : 4:2:0
Bit depth                                : 8 bits
Scan type                                : Progressive
Bits/(Pixel*Frame)                       : 0.038
Stream size                              : 24.0 MiB (68%)
Writing library                          : x264 core 146 r2538 121396c
Language                                 : English
Default                                  : Yes
Forced                                   : No

Audio #1
ID                                       : 2
Format                                   : AC-3
Format/Info                              : Audio Coding 3
Codec ID                                 : A_AC3
Duration                                 : 1 min 45 s
Bit rate mode                            : Constant
Bit rate                                 : 640 kb/s
Channel(s)                               : 6 channels
Channel positions                        : Front: L C R, Side: L R, LFE
Sampling rate                            : 48.0 kHz
Frame rate                               : 31.250 FPS (1536 SPF)
Bit depth                                : 16 bits
Compression mode                         : Lossy
Stream size                              : 8.07 MiB (23%)
Title                                    : Org BD 5.1 640Kbps ~ Jitu
Language                                 : Hindi
Service kind                             : Complete Main
Default                                  : Yes
Forced                                   : Yes

Audio #2
ID                                       : 3
Format                                   : AC-3
Format/Info                              : Audio Coding 3
Codec ID                                 : A_AC3
Duration                                 : 1 min 45 s
Bit rate mode                            : Constant
Bit rate                                 : 224 kb/s
Channel(s)                               : 6 channels
Channel positions                        : Front: L C R, Side: L R, LFE
Sampling rate                            : 48.0 kHz
Frame rate                               : 31.250 FPS (1536 SPF)
Bit depth                                : 16 bits
Compression mode                         : Lossy
Stream size                              : 2.82 MiB (8%)
Language                                 : English
Service kind                             : Complete Main
Default                                  : No
Forced                                   : No

Text
ID                                       : 4
Format                                   : PGS
Muxing mode                              : zlib
Codec ID                                 : S_HDMV/PGS
Codec ID/Info                            : Picture based subtitle format used on BDs/HD-DVDs
Duration                                 : 56 s 974 ms
Bit rate                                 : 58.1 kb/s
Count of elements                        : 33
Stream size                              : 404 KiB (1%)
Title                                    : Eng PGS
Language                                 : English
Default                                  : Yes
Forced                                   : Yes



           
Category:Movies > Hollywood Dub
Lang:Hindi
Total Size:2.14 GB



|| Download This Movie Via Single Resumable Links Size: 2.11 GB ||

Direct-1 Google Drive | Direct-2 | Direct-3 |

Watch Online Click Here

Monday, 13 August 2018

August 13, 2018

Con Air (1997) BluRay 720p x264 Dual Audio [Hindi - English] DD2.0 - Esubs ~ Ranvijay


Poster


iMDB
Imdb Picture Title: Con Air
Year: 1997
Runtime: 115 minutes
Votes: 248146
Rating: 6.8/10
Language: English, Spanish
Country: USA
All Genres: Action, Crime, Thriller
Plot Outline: Cameron Poe, a highly decorated United States Army Ranger, came home to Alabama to his wife, Tricia, only to run into a few drunken regulars where Tricia works. Cameron unknowingly kills one of the drunks and is sent to a federal penitentiary for involuntary manslaughter for seven years. Cameron becomes eligible for parole and can now go home to his wife and daughter. Unfortunately, Cameron has to share a prison airplane with some of the country's most dangerous criminals, who took control of the plane and are now planning to escape the country. Cameron has to find a way to stop them while playing along. Meanwhile, United States Marshal Vincent Larkin is trying to help Cameron get free and stop the criminals, including Cyrus "The Virus" Grissom. Written by John Wiggins
Tagline: They were deadly on the ground. Now they have wings.
Director: Simon West
Writing By: Scott Rosenberg,
Produced By: Kenny Bates,Peter Bogart,Jerry Bruckheimer,Jonathan Hensleigh,Jim Kouf,Lynn Kouf,Chad Oman,
Music: Mark Mancina Trevor Rabin
Cast:
Colm Meaney as Duncan Malloy
Mykelti Williamson as Baby-O
Nick Chinlund as Billy Bedlam
Renoly Santiago as Ramon 'Sally-Can't Dance' Martinez
John Malkovich as Cyrus 'The Virus' Grissom
Ving Rhames as Diamond Dog
Dave Chappelle as Pinball
Rachel Ticotin as Guard Sally Bishop
Steve Eastin as Guard Falzon
Steve Buscemi as Garland 'The Marietta Mangler' Greene
Trailers:
Con Air
Con Air



Details
Name:ConAir (1997) BluRay 720p x264 Dual Audio [Hindi - English] DD2.0 - Esubs ~ Ranvijay
Description:
Con Air (1997) 720p BluRay x264 Dual Audio [Hindi - English] DD2.0 - Esubs ~ Ranvijay

 

Thanks To Hammer For Hindi Audio

Format                                   : Matroska
Format version                           : Version 4 / Version 2
File size                                : 1.06 GiB
Duration                                 : 1 h 55 min
Overall bit rate                         : 1 316 kb/s
Movie name                               : ConAir (1997) 720p BluRay x264 Dual Audio [Hindi - English] DD2.0 - Esubs ~ Ranvijay

Video
ID                                       : 1
Format                                   : AVC
Format/Info                              : Advanced Video Codec
Duration                                 : 1 h 55 min
Bit rate                                 : 994 kb/s
Width                                    : 1 280 pixels
Height                                   : 544 pixels
Display aspect ratio                     : 2.35:1
Frame rate mode                          : Constant
Frame rate                               : 23.976 (24000/1001) FPS
Color space                              : YUV
Chroma subsampling                       : 4:2:0
Bit depth                                : 8 bits
Scan type                                : Progressive
Bits/(Pixel*Frame)                       : 0.060
Stream size                              : 821 MiB (76%)
Language                                 : English
Default                                  : Yes
Forced                                   : No

Audio #1
ID                                       : 2
Format                                   : AC-3
Format/Info                              : Audio Coding 3
Codec ID                                 : A_AC3
Duration                                 : 1 h 55 min
Bit rate mode                            : Constant
Bit rate                                 : 224 kb/s
Channel(s)                               : 2 channels
Channel positions                        : Front: L R
Sampling rate                            : 48.0 kHz
Frame rate                               : 31.250 FPS (1536 SPF)
Bit depth                                : 16 bits
Compression mode                         : Lossy
Delay relative to video                  : 200 ms
Stream size                              : 185 MiB (17%)
Title                                    : ~Ranvijay~
Language                                 : Hindi
Service kind                             : Complete Main
Default                                  : Yes
Forced                                   : Yes

Audio #2
ID                                       : 3
Format                                   : AAC
Format/Info                              : Advanced Audio Codec
Format profile                           : LC
Codec ID                                 : A_AAC-2
Duration                                 : 1 h 55 min
Bit rate                                 : 89.4 kb/s
Channel(s)                               : 2 channels
Channel positions                        : Front: L R
Sampling rate                            : 48.0 kHz
Frame rate                               : 46.875 FPS (1024 SPF)
Compression mode                         : Lossy
Delay relative to video                  : 9 ms
Stream size                              : 73.8 MiB (7%)
Title                                    : ~Ranvijay~
Language                                 : English
Default                                  : No
Forced                                   : No

Text #1
ID                                       : 4
Format                                   : VobSub
Muxing mode                              : zlib
Codec ID                                 : S_VOBSUB
Codec ID/Info                            : Picture based subtitle format used on DVDs
Duration                                 : 1 h 54 min
Bit rate                                 : 10.3 kb/s
Count of elements                        : 1225
Stream size                              : 8.44 MiB (1%)
Title                                    : ~Ranvijay~
Language                                 : English
Default                                  : Yes
Forced                                   : No

Text #2
ID                                       : 5
Format                                   : UTF-8
Codec ID                                 : S_TEXT/UTF8
Codec ID/Info                            : UTF-8 Plain Text
Duration                                 : 1 h 48 min
Bit rate                                 : 61 b/s
Count of elements                        : 1192
Stream size                              : 48.6 KiB (0%)
Title                                    : ~Ranvijay~
Language                                 : English
Default                                  : No
Forced                                   : No

Menu
00:00:00.000                             : en:Chapter 1
00:10:03.394                             : en:Chapter 2
00:28:25.912                             : en:Chapter 3
00:42:52.528                             : en:Chapter 4
00:57:22.981                             : en:Chapter 5
01:09:02.596                             : en:Chapter 6
01:22:53.301                             : en:Chapter 7
01:34:51.143                             : en:Chapter 8
01:40:36.572                             : en:Chapter 9
01:48:10.525                             : en:Chapter 10
01:55:26.169                             : en:Chapter 11

         

Category:Movies > Hollywood Dub
Lang:Hindi
Total Size:1.08 GB



Sample

|| Download This Movie Via Single Resumable Links Size: 1.06 GB ||

Direct-1 Google Drive | Direct-2 | Direct-3 |

Watch Online Click Here

August 13, 2018

Decoys (2004) 480p DVDRip M.Audio [Tamil + Telugu + Hindi + Eng] - x264 - 950MB


Poster


iMDB
Imdb Picture Title: Decoys
Year: 2004
Runtime: 95 minutes
Votes: 4286
Rating: 4.6/10
Language: English
Country: Canada
All Genres: Comedy, Horror, Sci-Fi
Plot Outline: In St. John College, the freshmen and best friends Luke and Roger meet the sexy blond cousins Lilly and Constance in the laundry of their building. They are next-door neighbors, and the experienced girls invite the young men to visit them anytime. Lilly forgets a package of coins in the laundry, and Luke goes to their room to return it. The room is empty, and he sneaks around, when the two girls arrive. Luke hides himself in the wardrobe, and through an opening, he sees Lilly with many tentacles on her breast. Luke tries to convince his friends that the girls are aliens, planning to attack Earth, but nobody believes in him. Meanwhile, some friends of them are found dead, with the internal organs completely frozen. Written by Claudio Carvalho, Rio de Janeiro, Brazil
Tagline: They can seduce anyone... Prey it isn't you!
Director: Matthew Hastings
Writing By: Matthew Hastings,Tom Berry,
Produced By: Franco Battista,Josée Bernard,Tom Berry,Neil Bregman,
Music: Daryl Bennett Jim Guttridge
Cast:
Corey Sevier as Luke
Stefanie von Pfetten as Lilly
Kim Poirier as Constance
Elias Toufexis as Roger
Meghan Ory as Alex
Ennis Esmer as Gibby
Krista Morin as Vikki Vickers
Marc Trottier as Bobby Johnson
Carrie Colak as Natasha
Richard Burgi as Detective Francis Kirk
Trailers:
Decoys



Details
Name:Decoys (2004) 480p DVDRip M.Audio [Tamil + Telugu + Hindi + Eng] - x264 - 950MB
Description:
Decoys (2004) 480p DVDRip M.Audio [Tamil + Telugu + Hindi + Eng] - x264 - 950MB

 

Format                                   : Matroska
Format version                           : Version 4 / Version 2
File size                                : 949 MiB
Duration                                 : 1 h 32 min
Overall bit rate                         : 1 441 kb/s

Video
ID                                       : 1
Format                                   : AVC
Format/Info                              : Advanced Video Codec
Format profile                           : Main@L4
Format settings                          : CABAC / 4 Ref Frames
Format settings, CABAC                   : Yes
Format settings, RefFrames               : 4 frames
Codec ID                                 : V_MPEG4/ISO/AVC
Duration                                 : 1 h 32 min
Bit rate                                 : 1 013 kb/s
Width                                    : 720 pixels
Height                                   : 400 pixels
Display aspect ratio                     : 16:9
Frame rate mode                          : Constant
Frame rate                               : 25.000 FPS
Color space                              : YUV
Chroma subsampling                       : 4:2:0
Bit depth                                : 8 bits
Scan type                                : Progressive
Bits/(Pixel*Frame)                       : 0.141
Stream size                              : 663 MiB (70%)
Writing library                          : x264 core 155 r2901 7d0ff22
Language                                 : English
Default                                  : Yes
Forced                                   : Yes
Color range                              : Limited
Color primaries                          : BT.601 PAL
Transfer characteristics                 : BT.709
Matrix coefficients                      : BT.601

Audio #1
ID                                       : 2
Format                                   : MPEG Audio
Format version                           : Version 1
Format profile                           : Layer 3
Format settings                          : Joint stereo / MS Stereo
Codec ID                                 : A_MPEG/L3
Codec ID/Hint                            : MP3
Duration                                 : 1 h 32 min
Bit rate mode                            : Constant
Bit rate                                 : 128 kb/s
Channel(s)                               : 2 channels
Sampling rate                            : 48.0 kHz
Frame rate                               : 41.667 FPS (1152 SPF)
Compression mode                         : Lossy
Delay relative to video                  : -23 ms
Stream size                              : 84.3 MiB (9%)
Writing library                          : LAME3.99r
Encoding settings                        : -m j -V 4 -q 3 -lowpass 17 -b 128
Language                                 : Tamil
Default                                  : Yes
Forced                                   : Yes

Audio #2
ID                                       : 3
Format                                   : MPEG Audio
Format version                           : Version 1
Format profile                           : Layer 3
Format settings                          : Joint stereo / MS Stereo
Codec ID                                 : A_MPEG/L3
Codec ID/Hint                            : MP3
Duration                                 : 1 h 32 min
Bit rate mode                            : Constant
Bit rate                                 : 128 kb/s
Channel(s)                               : 2 channels
Sampling rate                            : 44.1 kHz
Frame rate                               : 38.281 FPS (1152 SPF)
Compression mode                         : Lossy
Delay relative to video                  : -23 ms
Stream size                              : 84.3 MiB (9%)
Writing library                          : LAME3.99r
Encoding settings                        : -m j -V 4 -q 3 -lowpass 17 -b 128
Language                                 : Telugu
Default                                  : No
Forced                                   : No

Audio #3
ID                                       : 4
Format                                   : MPEG Audio
Format version                           : Version 1
Format profile                           : Layer 3
Format settings                          : Joint stereo / MS Stereo
Codec ID                                 : A_MPEG/L3
Codec ID/Hint                            : MP3
Duration                                 : 1 h 32 min
Bit rate mode                            : Constant
Bit rate                                 : 128 kb/s
Channel(s)                               : 2 channels
Sampling rate                            : 44.1 kHz
Frame rate                               : 38.281 FPS (1152 SPF)
Compression mode                         : Lossy
Delay relative to video                  : -23 ms
Stream size                              : 84.3 MiB (9%)
Writing library                          : LAME3.99r
Encoding settings                        : -m j -V 4 -q 3 -lowpass 17 -b 128
Language                                 : Hindi
Default                                  : No
Forced                                   : No

Audio #4
ID                                       : 5
Format                                   : MPEG Audio
Format version                           : Version 1
Format profile                           : Layer 3
Format settings                          : Joint stereo / MS Stereo
Codec ID                                 : A_MPEG/L3
Codec ID/Hint                            : MP3
Duration                                 : 1 h 32 min
Bit rate mode                            : Constant
Bit rate                                 : 48.0 kb/s
Channel(s)                               : 2 channels
Sampling rate                            : 48.0 kHz
Frame rate                               : 41.667 FPS (1152 SPF)
Compression mode                         : Lossy
Stream size                              : 31.6 MiB (3%)
Writing library                          : LAME3.100
Language                                 : English
Default                                  : No
Forced                                   : No


           
Category:Movies > Hollywood Dub
Lang:Hindi
Total Size:949.23 MB



|| Download This Movie Via Single Resumable Links Size: 949 MB ||

Direct-1 Google Drive | Direct-2 | Direct-3 |

Watch Online Click Here

August 13, 2018

Saheb Biwi Aur Gangster (2011) Hindi 720p DvDRip x264 AAC...Hon3y


Poster


iMDB
Imdb Picture Title: Saheb Biwi Aur Gangster
Year: 2011
Runtime: 118 minutes
Votes: 3458
Rating: 7.2/10
Language: Hindi, English
Country: India
All Genres: Action, Crime, Drama, Romance, Thriller
Plot Outline: After the death of his first wife, wealthy Raja Aditya Pratap Singh, re-marries another woman, simply known as Chhoti Rani, who subsequently becomes mentally unstable. His father's former mistress, Badi Rani, controls the wealth, while he himself has a mistress. Unable to procure contracts through Mantri Prabhu Tiwari, he decides to stand for elections, while his rival, Ghenda Singh, recruits an assassin, Babalu, who is also the nephew of Sunder, Chhoti Rani's chauffeur, to kill Aditya. After Sunder is unable to drive due to an injury, he recommends Babalu, and Aditya hires him. Babalu settles down in his new job, attempts to get accepted by everyone, including Chhoti Rani, who he finds attractive. He soon finds out that she, too, has feelings for him, and then starts making plans of not only carrying out his assigned task but also becoming the next Saheb. Written by rAjOo (gunwanti@hotmail.com)
Director: Tigmanshu Dhulia
Writing By: Sanjay Chauhan,Tigmanshu Dhulia,
Produced By: Sunil Bohra,Tigmanshu Dhulia,Rahul Mittra,Ajay Rai,
Music: Anuj Garg Jaidev Kumar Abhishek Ray Mukhtar Sahota Sankarshan Sanket Amit Sial Ankit Tiwari
Cast:
Jimmy Sheirgill as Aditya Pratap Singh
Mahie Gill as Madhavi Devi
Randeep Hooda as Babloo / Lalit
Shreya Narayan as Mahua
Deepal Shaw as Suman
Rajiv Gupta as MLA Prabhu Tiwari
Deep Raj Rana as Kanhaiya
Vipin Sharma as Gaindha Singh
Kanika Dang as Badi Raani- Aditya's mother
Mukti Mohan as Sp appearance in dance number
Trailers:
Saheb Biwi Aur Gangster trailer



Details
Name:Saheb Biwi Aur Gangster (2011) Hindi 720p DvDRip x264...Hon3y
Description:
Saheb Biwi Aur Gangster (2011) Hindi 720p DvDRip x264...Hon3y

 

Source : 720p DDR Thanks SaM
Format                                   : Matroska
Format version                           : Version 2
File size                                : 948 MiB
Duration                                 : 1 h 58 min
Overall bit rate                         : 1 116 kb/s
Encoded date                             : UTC 2013-04-13 08:43:07
Writing application                      : mkvmerge v6.1.0 ('Old Devil') built on Mar  2 2013 14:32:37
Writing library                          : libebml v1.3.0 + libmatroska v1.4.0

Video
ID                                       : 1
Format                                   : AVC
Format/Info                              : Advanced Video Codec
Format profile                           : High@L4.1
Format settings                          : CABAC / 12 Ref Frames
Format settings, CABAC                   : Yes
Format settings, ReFrames                : 12 frames
Codec ID                                 : V_MPEG4/ISO/AVC
Duration                                 : 1 h 58 min
Nominal bit rate                         : 1 050 kb/s
Width                                    : 1 280 pixels
Height                                   : 544 pixels
Display aspect ratio                     : 2.35:1
Frame rate mode                          : Constant
Frame rate                               : 25.000 FPS
Color space                              : YUV
Chroma subsampling                       : 4:2:0
Bit depth                                : 8 bits
Scan type                                : Progressive
Bits/(Pixel*Frame)                       : 0.060
Writing library                          : x264 core 130 r2273 b3065e6
Language                                 : English
Default                                  : Yes
Forced                                   : No

Audio
ID                                       : 2
Format                                   : AAC
Format/Info                              : Advanced Audio Codec
Format profile                           : HE-AAC / LC
Format settings                          : Explicit
Codec ID                                 : A_AAC-2
Duration                                 : 1 h 58 min
Channel(s)                               : 2 channels
Channel positions                        : Front: L R
Sampling rate                            : 44.1 kHz / 22.05 kHz
Frame rate                               : 21.533 FPS (1024 SPF)
Compression mode                         : Lossy
Delay relative to video                  : 28 ms
Language                                 : Hindi
Default                                  : Yes
Forced                                   : No


Subtitle : English

 
Category:Movies > Bollywood
Lang:Hindi
Total Size:954.87 MB



|| Download This Movie Via Single Resumable Links Size: 948 MB ||

Direct-1 Google Drive | Direct-2 | Direct-3 |

Watch Online Click Here

August 13, 2018

Pete's Dragon (2016) 720p BluRay x264 Eng Subs [Dual Audio] [Hindi DD 2.0 - English DD 5.1] Exclusive By -=!Dr.STAR!=-


Poster
6b2e1ac063c778b07b23f79c16d0fbaa.jpg


iMDB
Imdb Picture Title: Pete's Dragon
Year: 2016
Runtime: 102 minutes
Votes: 38735
Rating: 6.8/10
Language: English
Country: USA
All Genres: Adventure, Family, Fantasy
Plot Outline: The adventures of an orphaned boy named Pete and his best friend Elliot, who just so happens to be a dragon.
Tagline: Some Secrets Are Too Big To Keep.
Director: David Lowery
Writing By: David Lowery,Toby Halbrooks,Malcolm Marmorstein,Seton I. Miller,S.S. Field,
Produced By: Adam Borba,Carthew Neal,Barrie M. Osborne,James Whitaker,
Music: Daniel Hart
Plot:
Pete, a boy is found in a forest. Apparently he's been living there for six years after an accident took his parents. A ranger named Grace decides to take him in and when she asks him how he survived all by himself, he says he had a friend, Elliot, with him. He draws a picture of Elliot and it's a picture of a dragon. Grace takes the picture to her father who claims that years ago, he encountered a dragon in the forest. Grace takes Pete back to the forest and he shows them where he lives and Elliot. A man saw Elliot and when he tells about his experience and is not believed, he sets out to prove it by capturing the dragon.
- Written by [email protected]
Pete, is a curious but lost boy who has survived in the forest for 6 years but he's not alone. He forms a friendship with a kind and warmhearted dragon and the people town try to figure out the secrets of Elliot and try to find Pete's family.
The boy Pete is e traveling with his parents, however there is a car accident in a lonely road and only Pete survives. He runs to the forest and is surrounded by a pack of wolves, but a dragon saves him and Pete calls him Elliot. Six years later, Pete is found by the ranger Grace and her family and she brings Pete home. He is welcomed by her father Meacham: her daughter Natalie; and her husband Jack, but he misses Elliot. Meanwhile the dragon seeks Pete out and Jack's brother Gavin sees him. He organizes a posse to capture the dragon while Grace drives Pete, Natalie and Meacham to the place where the boy was found. What will happen to the dragon Elliot?
- Written by Claudio Carvalho, Rio de Janeiro, Brazil
The adventures of an orphaned boy named Pete and his best friend Elliot, who just so happens to be a dragon.
- Written by Keith Simanton
Cast:
Bryce Dallas Howard as Grace
Robert Redford as Meacham
Oakes Fegley as Pete
Oona Laurence as Natalie
Wes Bentley as Jack
Karl Urban as Gavin
Isiah Whitlock Jr. as Sheriff Gene Dentler
Marcus Henderson as Woodrow
Aaron Jackson as Abner
Phil Grieve as Bobby
Trailers:
Trailer #1
Teaser Trailer

Details
Name:Petes Dragon 2016 720p Esub BluRay Dual Audio English Hindi GOPISAHI
Description:
Pete's Dragon (2016) 720p BluRay x264 Eng Subs [Dual Audio] [Hindi DD 2.0 - English DD 5.1]

Exclusive By -=!Dr.STAR!=-

Some Secrets are too Big to Keep !!!


[-=!Dr.STAR!=-]
 



Perfect Synchronization at its Best - Brought to you By STAR...... Doctor STAR


6b2e1ac063c778b07b23f79c16d0fbaa.jpg

::::PLOT:::::
The adventures of an orphaned boy named Pete and his best friend Elliot, who just so happens to be a dragon.

::::Info::::

---Movie Details---
General
Format : Matroska
Format version : Version 4 / Version 2
File size : 1.27 GiB
Duration : 1h 42mn
Overall bit rate : 1 773 Kbps

Video
ID : 1
Format : AVC
Format/Info : Advanced Video Codec
Codec ID : V_MPEG4/ISO/AVC
Duration : 1h 42mn
Bit rate : 1 194 Kbps
Width : 1 280 pixels
Height : 534 pixels
Display aspect ratio : 2.40:1
Frame rate mode : Constant
Frame rate : 23.976 fps
Title : -=!Dr.STAR!=-
Writing library : x264 core 146 r2538 121396c

Audio #1
ID : 2
Format : AC-3
Format profile : Dolby Digital
Codec ID : A_AC3
Duration : 1h 42mn
Bit rate mode : Constant
Bit rate : 384 Kbps
Channel(s) : 2 channels
Channel positions : Front: L R
Sampling rate : 48.0 KHz
Title : -=!Dr.STAR!=-
Language : Hindi

Audio #2
ID : 3
Format : AC-3
Format/Info : Audio Coding 3
Codec ID : A_AC3
Duration : 1h 42mn
Bit rate mode : Constant
Bit rate : 192 Kbps
Channel(s) : 6 channels
Channel positions : Front: L C R, Side: L R, LFE
Sampling rate : 48.0 KHz
Title : -=!Dr.STAR!=-
Language : English

Text #1
ID : 4
Format : UTF-8
Title : -=!Dr.STAR!=-
Language : English

Text #2
ID : 5
Format : UTF-8
Title : -=!Dr.STAR!=- SDH
Language : English


::::ScreenShots::::

Category:Movies > Hollywood Dub
Lang:Hindi
Total Size:1.28 GB





|| Download This Movie Via Single Resumable Links Size: 1.27 GB ||

Direct-1 Google Drive | Direct-2 | Direct-3 |

Watch Online Click Here