Captain Underpants The First Epic Movie (2017) 720p BluRay x264 {Dual Audio} [Hindi DD 5.0 + English 2.0] - Msub


Poster


iMDB
Imdb Picture Title: Captain Underpants: The First Epic Movie
Year: 2017
Runtime: 89 minutes
Votes: 4223
Rating: 6.6/10
Language: English
Country: USA
All Genres: Animation, Action, Comedy, Family
Plot Outline: Two overly imaginative pranksters named George and Harold hypnotize their principal into thinking he's a ridiculously enthusiastic, incredibly dimwitted superhero named Captain Underpants.
Tagline: 50% Hero. 100% Cotton
Director: David Soren
Writing By: Nicholas Stoller,Dav Pilkey,David Soren,
Produced By: Marie Balland,Rob Letterman,Daniela Mazzucato,Dav Pilkey,Damien Simonklein,Mireille Soria,Mark Swift,
Music: Theodore Shapiro
Plot:
Two overly imaginative pranksters named George and Harold hypnotize their principal into thinking he's a ridiculously enthusiastic, incredibly dimwitted superhero named Captain Underpants.
- Written by Twentieth Century Fox
Cast:
Kevin Hart as George
Ed Helms as Captain Underpants / Mr. Krupp
Nick Kroll as Professor Poopypants
Thomas Middleditch as Harold
Jordan Peele as Melvin
Kristen Schaal as Edith
DeeDee Rescher as Ms. Ribble
Brian Posehn as Mr. Rected
David Soren as Tommy
Mel Rodriguez as Mr. Fyde
Trailers:
Trailer #1


Details
Name:Captain Underpants The First Epic Movie (2017) 720p BluRay x264 {Dual Audio} [Hindi DD 5.0 + En...
Description:
Captain Underpants The First Epic Movie (2017) 720p BluRay x264 {Dual Audio} [Hindi DD 5.0 + English 2.0] - Msubs - Ranvijay



Format                                   : Matroska
Format version                           : Version 4 / Version 2
File size                                : 1.00 GiB
Duration                                 : 1 h 28 min
Overall bit rate                         : 1 620 kb/s

Video
ID                                       : 1
Format                                   : AVC
Format/Info                              : Advanced Video Codec
Format profile                           : High@L4.1
Format settings                          : CABAC / 4 Ref Frames
Format settings, CABAC                   : Yes
Format settings, RefFrames               : 4 frames
Codec ID                                 : V_MPEG4/ISO/AVC
Duration                                 : 1 h 28 min
Bit rate                                 : 900 kb/s
Width                                    : 1 280 pixels
Height                                   : 682 pixels
Display aspect ratio                     : 1.85:1
Frame rate mode                          : Constant
Frame rate                               : 23.976 (24000/1001) FPS
Color space                              : YUV
Chroma subsampling                       : 4:2:0
Bit depth                                : 8 bits
Scan type                                : Progressive
Bits/(Pixel*Frame)                       : 0.043
Stream size                              : 571 MiB (56%)
Default                                  : Yes
Forced                                   : No


Audio #1
ID                                       : 3
Format                                   : AC-3
Format/Info                              : Audio Coding 3
Format settings, Endianness              : Big
Codec ID                                 : A_AC3
Duration                                 : 1 h 28 min
Bit rate mode                            : Constant
Bit rate                                 : 448 kb/s
Channel(s)                               : 6 channels
Channel positions                        : Front: L C R, Side: L R, LFE
Sampling rate                            : 48.0 kHz
Frame rate                               : 31.250 FPS (1536 SPF)
Bit depth                                : 16 bits
Compression mode                         : Lossy
Delay relative to video                  : -43 ms
Stream size                              : 284 MiB (28%)
Language                                 : Hindi
Service kind                             : Complete Main
Default                                  : Yes
Forced                                   : No

Audio #2
ID                                       : 4
Format                                   : AAC
Format/Info                              : Advanced Audio Codec
Format profile                           : LC
Codec ID                                 : A_AAC-2
Duration                                 : 1 h 28 min
Bit rate                                 : 121 kb/s
Channel(s)                               : 2 channels
Channel positions                        : Front: L R
Sampling rate                            : 48.0 kHz
Frame rate                               : 46.875 FPS (1024 SPF)
Compression mode                         : Lossy
Delay relative to video                  : -43 ms
Stream size                              : 76.7 MiB (7%)
Language                                 : English
Default                                  : No
Forced                                   : No

Text #1
ID                                       : 5
Format                                   : PGS
Muxing mode                              : zlib
Codec ID                                 : S_HDMV/PGS
Codec ID/Info                            : Picture based subtitle format used on BDs/HD-DVDs
Duration                                 : 1 h 27 min
Bit rate                                 : 36.8 kb/s
Count of elements                        : 2950
Stream size                              : 23.0 MiB (2%)
Language                                 : Hindi
Default                                  : No
Forced                                   : No

Text #2
ID                                       : 6
Format                                   : PGS
Muxing mode                              : zlib
Codec ID                                 : S_HDMV/PGS
Codec ID/Info                            : Picture based subtitle format used on BDs/HD-DVDs
Duration                                 : 1 h 20 min
Bit rate                                 : 48.4 kb/s
Count of elements                        : 2912
Stream size                              : 28.0 MiB (3%)
Language                                 : English
Default                                  : No
Forced                                   : No

            
Category:Movies > Hollywood Dub
Lang:Hindi
Total Size:1.00 GB


Captain Underpants: The First Epic Movie 2017 Hindi DD 5.1Ch Untouched BluRay - Mr Rajpoot
  Runtime BD 01:28:40.320
AC3, Hindi, 5.1 channels, 448kbps, 48kHz ~ MrRajput
https://mega.nz/#!tDg03RzL!GwcQsNx0XhriuHw-Dzi8U3n2YGo_EVMrMSdJdssXN4g
Subtitle (PGS), Hindi captions ~ MrRajput
https://mega.nz/#!VPIGCBaR!KOz57mXYkCP2uA5Fw9CcTsCxR8WY78XFVGEAXMYM9v4
Subtitle (PGS), English captions ~ MrRajput
https://mega.nz/#!4eoTDSKI!TuvdPPihdyLVVOY3Rh_lXzDrx40EA3S272MFbmM7cXI


Sample
Download-Links-300x90

|| Download This Movie Via Single Resumable Links Size: 1.00 GB ||

Direct-1 Google Drive | Direct-2 | Direct-3 |

Watch Online Click Here

Post a Comment

0 Comments