Fire with Fire (2012) BRRip 720p Dual Audio [English-Hindi] Movie Free Download


Poster


iMDB
Imdb Picture Title: Fire with Fire
Year: 2012
Runtime: 97 minutes
Votes: 22343
Rating: 5.7/10
Language: English
Country: USA
All Genres: Action, Crime, Drama, Thriller
Plot Outline: A fireman takes an unexpected course of action when a man whom he's been ordered to testify against, after being held up at a local convenience store, threatens him.
Tagline: Revenge has its own set of rules.
Director: David Barrett
Writing By: Tom O'Connor,Lowell Cauffiel,
Produced By: 50 Cent,Brandt Andersen,Ryan S. Black,Martin Blencowe,Michael Blencowe,Michael Botti,Barry Brooker,Remington Chase,Michael Corso,Christian de Gallegos,Andrew Deane,Nadine DeBarros,Randall Emmett,Frederick U. Fierst,Zev Foreman,Ted Fox,George Furla,Gus Furla,James Gibb,Brett Granstaff,Brandon Grimes,Anthony Gudas,Richard Jackson,Corey Large,Jenn Lee,Fredrik Malmberg,Stepan Martirosyan,Vance Owen,Matthew Rhodes,Jeff Rice,Scott Robinson,Kevin Robl,Jess Rosenthal,Brian Sacks,William B. Steakley,Mark Stewart,Daniel Wagner,Stan Wertlieb,
Music: Trevor Morris
Cast:
Josh Duhamel as Jeremy Coleman
Bruce Willis as Mike Cella
Rosario Dawson as Talia Durham
Vincent D'Onofrio as David Hagan
50 Cent as Lamar
Julian McMahon as Robert
Vinnie Jones as Boyd
Arie Verveen as Darren
Eric Winter as Adam
Bonnie Somerville as Karen Westlake
Trailers:
International Version
Fire with Fire
U.S. Version


Details
Name:Fire With Fire 2012 720p Esub BluRay Dual Audio English Hindi GOPISAHI
Description:

Format version                 : Version 4 / Version 2
File size                      : 802 MiB
Duration                       : 1 h 37 min
Overall bit rate               : 1 150 kb/s
Movie name                     : Fire With Fire 2012

Video
Format                         : AVC
Codec ID                       : V_MPEG4/ISO/AVC
Duration                       : 1 h 37 min
Bit rate                       : 976 kb/s
Width                          : 1 280 pixels
Height                         : 544 pixels
Display aspect ratio           : 2.35:1
Frame rate mode                : Constant
Frame rate                     : 23.976 (24000/1001) FPS
Stream size                    : 680 MiB (85%)
Writing library                : x264

Audio #1
Format                         : AAC
Duration                       : 1 h 37 min
Bit rate                       : 82.4 kb/s
Channel(s)                     : 6 channels
Channel positions              : Front: L C R, Side: L R, LFE
Sampling rate                  : 44.1 kHz
Frame rate                     : 43.066 FPS (1024 SPF)
Stream size                    : 57.5 MiB (7%)
Title                          : GOPISAHI
Language                       : English

Audio #2
Format                         : AAC
Duration                       : 1 h 37 min
Bit rate                       : 90.2 kb/s
Channel(s)                     : 6 channels
Channel positions              : Front: L C R, Side: L R, LFE
Sampling rate                  : 44.1 kHz
Frame rate                     : 43.066 FPS (1024 SPF)
Stream size                    : 62.9 MiB (8%)
Title                          : GOPISAHI
Language                       : Hindi


Text
Language                       : English


Category:Movies > Hollywood Dub
Lang:Hindi
Total Size:802.13 MB

:download:

|| Download This Movie Via Single Resumable Links Size: 802 MB ||

Direct-1 Google Drive | Direct-2 | Direct-3 |

Watch Online Click Here

Post a Comment

0 Comments