STAY WITH US

header ads

LIE (2017) Uncut HDRip - 720p -[Telugu+Hindi(Clear Audio)] -x264 AAC - 1.2GB-ESub


Poster


iMDB
Imdb Picture Title: LIE
Year: 2017
Runtime: 145 minutes
Votes: 117
Rating: 6.5/10
Language: Telugu
Country: India
All Genres: Romance, Thriller
Plot Outline: LIE revolves around a guy named A. Satyam and tells it as Asatyam. He falls in love with a girl who falls for him for all the lies he says. It is the story of how he manages both love and his enmity don (Arjun) with intelligence.
Tagline: Love Intelligence Enmity
Director: Hanumantha Rao Raghavapudi
Writing By: Hanumantha Rao Raghavapudi,
Produced By: Gopichand Achanta,
Music: Mani Sharma
Cast:
Ajay as Ajay
Megha Akash as Chaitra
Arjun as Padmanabham
Roger Julian Cross as Excursionist
Ravi Kishan as Bharadwaj
Nithiin as A Sathyam
Jibreel Tracy as Mugger


Details
Name:LIE (2017) Uncut HDRip - 720p -[Telugu+Hindi(Clear Audio)] -x264 AAC - 1.2GB-ESubs
Description:
LIE (2017) Uncut HDRip - 720p -[Telugu+Hindi(Clear Audio)] -x264 AAC - 1.2GB-ESubs
 

LIE revolves around a guy named A. Satyam and tells it as Asatyam. He falls in love with a girl who falls for him for all the lies he says. It is the story of how he manages both love and his enmity don (Arjun) with intelligence


General
Complete name                            : LIE (2017) Uncut HDRip - 720p -[Telugu+Hindi(Clear Audio)] -x264 AAC - 1.2GB-ESubs.mkv
Format                                   : Matroska
Format version                           : Version 4 / Version 2
File size                                : 1.19 GiB
Duration                                 : 2 h 21 min
Overall bit rate mode                    : Variable
Overall bit rate                         : 1 203 kb/s

Video
ID                                       : 3
Format                                   : AVC
Format/Info                              : Advanced Video Codec
Format profile                           : High@L3.1
Format settings, CABAC                   : Yes
Format settings, ReFrames                : 4 frames
Codec ID                                 : V_MPEG4/ISO/AVC
Duration                                 : 2 h 21 min
Bit rate                                 : 830 kb/s
Width                                    : 1 280 pixels
Height                                   : 616 pixels
Display aspect ratio                     : 2.078
Frame rate mode                          : Constant
Frame rate                               : 25.000 FPS
Color space                              : YUV
Chroma subsampling                       : 4:2:0
Bit depth                                : 8 bits
Scan type                                : Progressive
Bits/(Pixel*Frame)                       : 0.042
Stream size                              : 837 MiB (69%)
Language                                 : English
Default                                  : Yes
Forced                                   : No

Audio #1
ID                                       : 1
Format                                   : AAC
Format/Info                              : Advanced Audio Codec
Format profile                           : LC
Codec ID                                 : A_AAC
Duration                                 : 2 h 20 min
Bit rate                                 : 132 kb/s
Channel(s)                               : 2 channels
Channel positions                        : Front: L R
Sampling rate                            : 44.1 kHz
Frame rate                               : 43.066 FPS (1024 spf)
Compression mode                         : Lossy
Delay relative to video                  : 1 s 939 ms
Stream size                              : 133 MiB (11%)
Language                                 : Telugu
Default                                  : Yes
Forced                                   : No

Audio #2
ID                                       : 2
Format                                   : MPEG Audio
Format version                           : Version 1
Format profile                           : Layer 3
Codec ID                                 : A_MPEG/L3
Codec ID/Hint                            : MP3
Duration                                 : 2 h 20 min
Bit rate mode                            : Variable
Bit rate                                 : 239 kb/s
Channel(s)                               : 2 channels
Sampling rate                            : 48.0 kHz
Frame rate                               : 41.667 FPS (1152 spf)
Compression mode                         : Lossy
Stream size                              : 241 MiB (20%)
Language                                 : Hindi
Default                                  : No
Forced                                   : No

503ac98e48ebebb5c9203d7f4aee43b8.th.png 0014280e204f99b6d2c0fe74d2178721.th.png 5d8a008c4c33c450e973d95b36e79995.th.png 5864c3e449c8d42e53bdfe33614d8da5.th.png 31a42c3129b6e312307725e7ef3ade2b.th.png 4e85837db40d23f8fef06049a74f845a.th.png 11b8345ed2bcee7b0b89f8f772c1bdb6.th.png 5b007b119b6f14987d9034ee4392c9dd.th.png
Category:Movies > South Dub
Lang:Hindi
Total Size:1.19 GB



Download-Links-300x90

|| Download This Movie Via Single Resumable Links Size: 1.19 GB ||

Direct-1 Google Drive | Direct-2 | Direct-3 |

Watch Online Click Here

Post a Comment

0 Comments