Space Chimps 2: Zartog Strikes Back (2010) 720p BluRay {Dual Audio} [Hindi + English] Esub


Poster


iMDB
Imdb Picture Title: Space Chimps 2: Zartog Strikes Back
Year: 2010
Runtime: 76 minutes
Votes: 1394
Rating: 2.7/10
Language: English
Country: USA
All Genres: Animation, Comedy, Family, Sci-Fi
Plot Outline: Space Chimps 2: Zartog Strikes Back follows Comet, the cool techno chimp who longs to be taken seriously as a full-fledged space chimp. Comet journeys to the fantastical Planet Malgor and ...
Tagline: Get ready to blast off on a new adventure.
Director: John H. Williams
Writing By: Robert Moreland,
Produced By: Curtis Augspurger,Christopher Ball,Kristin Dornig,Arish Fyzee,Jeremy Ross,Ash R. Shah,John H. Williams,Akhila Namboodiri,
Music: Ned Douglas Samuel Stewart
Cast:
Tom Kenny as Ham / Reporter #1
Zack Shada as Comet
Patrick Warburton as Titan
Cheryl Hines as Luna
Carlos Alazraqui as Houston / Piddles The Clown / Camera Guy
Laura Bailey as Kilowatt / Computer Voice / Instar Receptionist / Girl Reporter
John DiMaggio as Zartog / Human #1 / Human #2
Stanley Tucci as Senator
Patrick Breen as Dr. Bob
Jane Lynch as Dr. Poole


Details
Name:Space Chimps 2 - Zartog Strikes Back 2010 720p Esub BluRay Dual Audio English Hindi GOPISAHI
Description:

Format                         : Matroska
Format version                 : Version 4 / Version 2
File size                      : 477 MiB
Duration                       : 1 h 15 min
Overall bit rate               : 881 kb/s
Movie name                     : Space Chimps 2 - Zartog Strikes Back 2010

Video
Format                         : AVCs
Codec ID                       : V_MPEG4/ISO/AVC
Duration                       : 1 h 15 min
Bit rate                       : 699 kb/s
Width                          : 952 pixels
Height                         : 536 pixels
Display aspect ratio           : 16:9
Frame rate mode                : Constant
Frame rate                     : 23.976 (24000/1001) FPSve
Bits/(Pixel*Frame)             : 0.057
Stream size                    : 379 MiB (79%)
Writing library                : x264 core 148 r2708 86b7198

Audio #1
Format                         : AAC
Duration                       : 1 h 15 min
Bit rate                       : 89.7 kb/s
Channel(s)                     : 6 channels
Channel positions              : Front: L C R, Side: L R, LFE
Sampling rate                  : 44.1 kHz
Frame rate                     : 43.066 FPS (1024 SPF)
Stream size                    : 48.5 MiB (10%
Language                       : English

Audio #2
ID                             : 3
Format                         : AAC
Duration                       : 1 h 15 min
Bit rate                       : 89.8 kb/s
Channel(s)                     : 6 channels
Channel positions              : Front: L C R, Side: L R, LFE
Sampling rate                  : 44.1 kHz
Frame rate                     : 43.066 FPS (1024 SPF)
Stream size                    : 48.6 MiB (10%)
Language                       : Hindi

Text
Language                       : English



Category:Movies > Hollywood Dub
Lang:Hindi
Total Size:477.48 MB




Download-Links-300x90

|| Download This Movie Via Single Resumable Links Size: 477 MB ||

Direct-1 Google Drive | Direct-2 | Direct-3 |

Watch Online Click Here

Post a Comment

0 Comments