Birth of the Dragon (2016) BRRip 720p x264 AAC 900MB - MkvCage


Poster


iMDB
Imdb Picture Title: Birth of the Dragon
Year: 2016
Runtime: 95 minutes
Votes: 1600
Rating: 4.5/10
Language: English, Mandarin
Country: China, Canada, USA
All Genres: Action, Biography, Drama
Plot Outline: Set against the backdrop of 1960s San Francisco, BIRTH OF THE DRAGON is a modern take on the classic movies that Bruce Lee was known for. It takes its inspiration from the epic and still controversial showdown between an up-and-coming Bruce Lee and kung fu master Wong Jack Man - a battle that gave birth to a legend.
Tagline: The Fight That Created The Legend
Director: George Nolfi
Writing By: Stephen J. Rivele,Christopher Wilkinson,Michael Dorgan,
Produced By: Jason Blum,Bohan Gong,Sunil Homes,Drew James,Michael London,Michael J. Luisi,Jaeson Ma,Kelly Mullen,David Nicksay,George Nolfi,Hong Pang,Stephen J. Rivele,Joel Viertel,Christopher Wilkinson,Janice Williams,Leo Shi Young,Helen Ye Zhong,
Music: Reza Safinia H. Scott Salinas
Cast:
Yu Xia as Wong Jack Man
Wang Xi'An as Tai Chi Grandmaster / Wang Lian
Hai Yu as Shaolin Abbot
Yue Wu as Wang Biao
Billy Magnussen as Steve McKee
Steven Roberts as Beat Poet
Riley Wood as Hippie Girl
Philip Ng as Bruce Lee
Simon Yin as Vinnie Wei
Terry Chen as Frankie Chen
Trailers:
Official Trailer
BIRTH OF THE DRAGON - OFFICIAL TRAILER (2017)



Details
Name:Birth of the Dragon (2016) BRRip 720p x264 AAC 900MB - MkvCage
Description:
 



   Format                                   : Matroska
   Format version                           : Version 4 / Version 2
   File size                                : 901 MiB
   Duration                                 : 1 h 35 min
   Overall bit rate                         : 1 318 kb/s
   Movie name                               : Birth.Of.The.Dragon.2016.720p.BRRip.900MB.MkvCage
   Encoded date                             : UTC 2017-11-09 01:27:28
   Writing application                      : mkvmerge v16.0.0 ('Protest') 64-bit
   Writing library                          : libebml v1.3.5 + libmatroska v1.4.8
   
   Video
   ID                                       : 2
   Format                                   : AVC
   Format/Info                              : Advanced Video Codec
   Format profile                           : High@L4.1
   Format settings, CABAC                   : Yes
   Format settings, ReFrames                : 9 frames
   Codec ID                                 : V_MPEG4/ISO/AVC
   Duration                                 : 1 h 35 min
   Bit rate                                 : 1 218 kb/s
   Width                                    : 1 280 pixels
   Height                                   : 536 pixels
   Display aspect ratio                     : 2.40:1
   Frame rate mode                          : Constant
   Frame rate                               : 23.976 (24000/1001) FPS
   Color space                              : YUV
   Chroma subsampling                       : 4:2:0
   Bit depth                                : 8 bits
   Scan type                                : Progressive
   Bits/(Pixel*Frame)                       : 0.074
   Stream size                              : 831 MiB (92%)
   Writing library                          : x264 core 133 r2334 a3ac64b
   Encoding settings                        : cabac=1 / ref=9 / deblock=1:0:0 / analyse=0x3:0x133 / me=umh / subme=10 / psy=1 / psy_rd=1.00:0.00 / mixed_ref=1 / me_range=24 / chroma_me=1 / trellis=2 / 8x8dct=1 / cqm=0 / deadzone=21,11 / fast_pskip=1 / chroma_qp_offset=-2 / threads=48 / lookahead_threads=4 / sliced_threads=0 / nr=0 / decimate=1 / interlaced=0 / bluray_compat=0 / constrained_intra=0 / bframes=6 / b_pyramid=2 / b_adapt=2 / b_bias=0 / direct=3 / weightb=1 / open_gop=0 / weightp=2 / keyint=240 / keyint_min=23 / scenecut=40 / intra_refresh=0 / rc_lookahead=60 / rc=2pass / mbtree=1 / bitrate=1218 / ratetol=1.0 / qcomp=0.60 / qpmin=10 / qpmax=51 / qpstep=4 / cplxblur=20.0 / qblur=0.5 / vbv_maxrate=62500 / vbv_bufsize=78125 / nal_hrd=none / ip_ratio=1.40 / aq=1:1.00
   Default                                  : Yes
   Forced                                   : No
   
   Audio
   ID                                       : 1
   Format                                   : AAC
   Format/Info                              : Advanced Audio Codec
   Format profile                           : HE-AAC / LC
   Codec ID                                 : A_AAC
   Duration                                 : 1 h 35 min
   Bit rate                                 : 100.0 kb/s
   Channel(s)                               : 2 channels
   Channel positions                        : Front: L R
   Sampling rate                            : 48.0 kHz / 24.0 kHz
   Frame rate                               : 23.438 FPS (1024 spf)
   Compression mode                         : Lossy
   Delay relative to video                  : 31 ms
   Stream size                              : 68.4 MiB (8%)
   Language                                 : English
   Default                                  : Yes
   Forced                                   : No
   
   Text
   ID                                       : 3
   Format                                   : UTF-8
   Codec ID                                 : S_TEXT/UTF8
   Codec ID/Info                            : UTF-8 Plain Text
   Duration                                 : 1 h 23 min
   Bit rate                                 : 48 b/s
   Count of elements                        : 1037
   Stream size                              : 29.4 KiB (0%)
   Language                                 : English
   Default                                  : Yes
   Forced                                   : No


          
Category:Movies > 720P Bluray
Lang:English  English
Total Size:900.76 MB


:download:

|| Download This Movie Via Single Resumable Links Size: 901MB ||

Direct-1 Google Drive |

Watch Online Click Here

Post a Comment

0 Comments