Crazy World Only 4 You

Sorry For The Inconvenience. If You are facing link dead or no google drive file access then inform us via comment

Latest Updates

Saturday, 25 November 2017

Dum Laga Ke Haisha (2015) Hindi 1080p BluRay x264 AAC


Poster


iMDB
Imdb Picture Title: Dum Laga Ke Haisha
Year: 2015
Runtime: 110 minutes
Votes: 11532
Rating: 7.5/10
Language: Hindi
Country: India
All Genres: Comedy, Drama, Romance
Plot Outline: Prem and his oversized wife Sandhya are supposed to spend a lifetime together. Will a regular arranged marriage turn out to be a perfect mismatch?
Director: Sharat Katariya
Writing By: Sharat Katariya,
Produced By: Aditya Chopra,Yogendra Mogre,Maneesh Sharma,Aashish Singh,Gurpreet Singh,
Music: Andrea Guerra Anu Malik
Plot:
It is the 1990s, the tape-cassette is dying, CDs will soon be the rage and a regular arranged marriage will turn out to be a perfect mismatch. Prem (Ayushmann Khurrana) is a shy music buff who runs a tape recording shop in Haridwar. Sandhya (Bhumi Pednekar) likes to dance to the band tunes at her own wedding. He has nightmares about drawing a blank at his English exam. She is about to carve a niche for herself as a teacher. But now, they are married and they are supposed to spend a lifetime together - and he is still trying to find balance on their scooter ride together. From overcoming his fear of the English language to dealing with an overbearing father, he discovers that his oversized wife, who he thought was a spanner in his spool, will actually lead him to something quite cool.
- Written by Official source
The movie is about Prem Prakash Tiwari (Ayushmann Khurrana), who dreams of getting married to a beautiful, slim girl. But destiny has something else in stored for Prem. He unwillingly gets married to Sandhya (Bhumi Pednekar), who is fat unlike the girls Ayushmann had been dreaming of. Post marriage, Prem goes on to ignore his wife, and on the other hand Sandhya tries to arouse love in her husband for herself. Amidst all this, a race is organized in the city where the husband has to carry his wife. The poor guy, under the pressure of his family has to participate in that race. Eventually there is love, music and dance that happens later in the film.
- Written by Umesh Awasthi
A beautiful love story of a under-educated boy and a over-weighted girl. A marriage takes place against the will of the boy. The relationship between the boy and the girl becomes uglier. Then their Hatred for each other turns into love eventually.
Prem Prakash Tiwari (Ayushmann Khurrana) listening to Kumar Sanu is the film's opening shot. Set in Haridwar, 1990s, the film captures the nascent feel of the town. Prem owns a cassette shop in the local market. His father is keen to get him married and the family goes to a local temple to meet Sandhya (Bhumi Pednekar). Having completed her degree in B.Ed and waiting for a teaching job, the most visible thing about her is her weight. Coming from a patriarchal cognitive set-up, she doesn't fit the quintessential idea of beautiful.
Prem (Ayushmann Khurrana) is a Haridwar bred middle class guy who is safe to be termed as a man-child. Prem gets shivers with the mention of English language and so hence he prefers to leave his education and work for his father's recording shop. He is smitten by Kumar Sanu's voice and listens to his songs on loop. When an unwilling Prem is forced by his overbearing father (Sanjay Mishra) into a marriage with Sandhya (Bhumi Pednekar), who is not only over sized but over educated too, Prem finds himself in a fix. He tries hard go resist this marriage but Sandhya is determined to make it work. In spite of being married to a man who is not even half as qualified as her and whose family still treats him as their kid, Sandhya is trying to overlook all the glitches and give this marriage a chance. At one point when Sandhya finally learns that her husband's perception of her is nothing but a fat lady with whom he can't even sleep on the same bed, she decides to spare him of this forced marriage. Will Prem realize that there is more to Sandhya than just her heavy appearance and will the Dum Laga Ke Haisha competition bring them closer is what is left to see.
- Written by vikas sharma
Prem and his oversized wife Sandhya are supposed to spend a lifetime together. Will a regular arranged marriage turn out to be a perfect mismatch?
- Written by Official Source
Cast:
Bhumi Pednekar as Sandhya
Ayushmann Khurrana as Prem
Sanjay Mishra as Chandrabhan Tiwari
Kumar Sanu as Kumar Sanu (Cameo)
Sheeba Chaddha as Nain Tara
Seema Pahwa as Subhadra Rani
Chandrachoor Rai as Nirmal
Alka Amin as Sashi Tiwari
Poorva Neeraj as Lawyer
Sanjeeva Vatsa as Madan Pal Verma
Trailers:
Theatrical Trailer




Details
Name:Dum Laga Ke Haisha (2015) Hindi 1080p BluRay x264 AAC
Description:

Dum Laga Ke Haisha 2015 1080p BluRay x264 AAC

p11795996_p_v8_ab




===================================================================
General
Complete name : Dum Laga Ke Haisha 2015 1080p BluRay x264 AAC { TaRa }.mkv
Format : Matroska
Format version : Version 4 / Version 2
File size : 1.54 GiB
Duration : 1 h 50 min
Overall bit rate mode : Variable
Overall bit rate : 1 995 kb/s
===================================================================
Video
ID : 1
Format : AVC
Format/Info : Advanced Video Codec
Format profile : High@L4.1
Format settings, CABAC : Yes
Format settings, ReFrames : 3 frames
Codec ID : V_MPEG4/ISO/AVC
Duration : 1 h 50 min
Bit rate mode : Variable
Bit rate : 1 900 kb/s
Maximum bit rate : 40.0 Mb/s
Width : 1 920 pixels
Height : 800 pixels
Display aspect ratio : 2.40:1
Frame rate mode : Constant
Frame rate : 24.000 FPS
Color space : YUV
Chroma subsampling : 4:2:0
Bit depth : 8 bits
Scan type : Progressive
Bits/(Pixel*Frame) : 0.052
Stream size : 1.46 GiB (95%)
Title : = __ TaRa ~ DDR __ =
Language : Hindi
Default : Yes
Forced : No
===================================================================
Audio
ID : 2
Format : AAC
Format/Info : Advanced Audio Codec
Format profile : LC
Codec ID : A_AAC
Duration : 1 h 50 min
Bit rate : 93.3 kb/s
Channel(s) : 2 channels
Channel positions : Front: L R
Sampling rate : 48.0 kHz
Frame rate : 46.875 FPS (1024 spf)
Compression mode : Lossy
Stream size : 73.5 MiB (5%)
Title : = __ TaRa ~ DDR __ =
Language : Hindi
Default : Yes
Forced : No
===================================================================




ae8a187531d69b018f3c97bc28c92a41.th.png 679ff25423add7157f4c959fcf89bfbb.th.png 05ddfa5a5f083437348e1a02fcba78a1.th.png e2ab752be2b2798ae04af1f898a8006b.th.png c78874e9f1e0826ed4f67b726f438f27.th.png 7dab076ffd8c461801673482fb067f7d.th.png daeff81e4d6df62236284b5b26333b49.th.png 924de38488963fc75bbd24edcc9c885c.th.png 8154c4808944063c1b898c532d82d66b.th.png 94d9829ab9bafb210c6410097ee775df.th.png be9cb6327ce03546b1398550b99a7697.th.png 87a95fd5efd3dc6fdd863789f07161b8.th.png ca4fb3de78f770ab3d5cd9f0cd6921e8.th.png 7772dcdc6dbe9a61755eee5031a463a9.th.png
  
Category:Movies > Bollywood
Lang:Hindi
Total Size:1.56 GB

:download:

|| Download This Movie Via Single Resumable Links Size: 1.55 GB ||

Direct-1 Google Drive |

No comments:

Post a Comment