Crazy World Only 4 You

Sorry For The Inconvenience. If You are facing link dead or no google drive file access then inform us via comment

Latest Updates

Saturday, 25 November 2017

Dylan Dog Dead Of Night (2010) 720p BluRay Dual Audio [English + Hindi] Esub


Poster


iMDB
Imdb Picture Title: Dylan Dog: Dead of Night
Year: 2010
Runtime: 107 minutes
Votes: 13589
Rating: 5.1/10
Language: English
Country: USA
All Genres: Action, Comedy, Crime, Fantasy, Horror, Mystery, Sci-Fi, Thriller
Plot Outline: The adventures of supernatural private investigator, Dylan Dog, who seeks out the monsters of the Louisiana bayou in his signature red shirt, black jacket, and blue jeans.
Tagline: No pulse? No problem.
Director: Kevin Munroe
Writing By: Thomas Dean Donnelly,Joshua Oppenheimer,Tiziano Sclavi,
Produced By: Gilbert Adler,Patrick Aiello,Brian Altounian,Ashok Amritraj,Gioy De Marco,Will French,Manu Gargi,Peter D. Graves,Randy Greenberg,Christopher Mapp,Kevin Munroe,Stephen Roberts,Scott Mitchell Rosenberg,Matthew Street,Lars Sylvest,David Whealy,
Music: Klaus Badelt
Cast:
Brandon Routh as Dylan
Anita Briem as Elizabeth
Sam Huntington as Marcus
Taye Diggs as Vargas
Kurt Angle as Wolfgang
Peter Stormare as Gabriel
Kent Jude Bernard as Pale Teen / Slake
Mitchell Whitfield as Cecil
Michael Cotter as Phil
Laura Spencer as Zoe
Trailers:
Dylan Dog Trailer: Dead of Night
    

Details
Name:Dylan Dog Dead Of Night 2010 720p Esub BluRay Dual Audio English Hindi GOPISAHI
Description:


Format                         : Matroska

Format version                 : Version 4 / Version 2

File size                      : 791 MiB

Duration                       : 1 h 47 min

Overall bit rate               : 1 025 kb/s

Movie name                     : Dylan Dog Dead Of Night 2010


Video

Format                         : AVC

Codec ID                       : V_MPEG4/ISO/AVC

Duration                       : 1 h 47 min

Bit rate                       : 874 kb/s

Width                          : 1 280 pixels

Height                         : 544 pixels

Display aspect ratio           : 2.35:1

Frame rate mode                : Constant

Frame rate                     : 23.976 (24000/1001) FPS

Stream size                    : 666 MiB (84%)

Writing library                : x264


Audio #1

Format                         : AAC

Duration                       : 1 h 47 min

Bit rate                       : 79.5 kb/s

Channel(s)                     : 6 channels

Channel positions              : Front: L C R, Side: L R, LFE

Sampling rate                  : 44.1 kHz

Frame rate                     : 43.066 FPS (1024 SPF)

Stream size                    : 61.3 MiB (8%)

Language                       : English


Audio #2

Format                         : AAC

Duration                       : 1 h 41 min

Bit rate                       : 84.0 kb/s

Channel(s)                     : 6 channels

Channel positions              : Front: L C R, Side: L R, LFE

Sampling rate                  : 44.1 kHz

Frame rate                     : 43.066 FPS (1024 SPF)

Delay relative to video        : 11 s 478 ms

Stream size                    : 61.3 MiB (8%)

Language                       : Hindi


Text

Language                       : English


Category:Movies > Hollywood Dub
Lang:Hindi
Total Size:790.52 MB

:download:

|| Download This Movie Via Single Resumable Links Size: 791MB ||

Direct-1 Google Drive |

No comments:

Post a Comment