Crazy World Only 4 You

Sorry For The Inconvenience. If You are facing link dead or no google drive file access then inform us via comment

Latest Updates

Saturday, 25 November 2017

Ek Villain (2014) Hindi 720p BluRay x264 AAC 5.1 MSubS-Hon3y



Poster


iMDB
Imdb Picture Title: Ek Villain
Year: 2014
Runtime: 129 minutes
Votes: 13014
Rating: 6.4/10
Language: Hindi
Country: India
All Genres: Action, Crime, Drama, Romance, Thriller
Plot Outline: When his lover becomes the latest victim of a serial killer, Guru blurs the line between good and evil in his pursuit of revenge.
Director: Mohit Suri
Writing By: Tushar Hiranandani,Milap Zaveri,
Produced By: Ekta Kapoor,Shobha Kapoor,Abdul Aziz Makani,Praful Salunke,Avi Udeshi,Mukesh Udeshi,Nitin Upadhyaya,
Music: Raju Singh
Cast:
Sidharth Malhotra as Guru
Riteish Deshmukh as Rakesh Mahadkar
Shraddha Kapoor as Aisha
Shaad Randhawa as Aditya
Aamna Sharif as Sulochana
Jack Wayne as Simon
Meher Acharya Dar as Ritiesh's Boss
Rini Das as Mistress
Prachi Desai as Cameo
Praveena Deshpande as Dipu's Mother
Trailers:
Official Trailer (No Subtitles)

Details
Name:Ek Villain 2014 Hindi 720p BluRay x264 AAC 5.1 MSubS-Hon3y
Description:
Ek Villain 2014 Hindi 720p BluRay x264 AAC 5.1 MSubS-Hon3y

Source : BD50 @ DRs . Thanks !


Format                      : Matroska
Format version              : Version 4 / Version 2
File size                   : 1.45 GiB
Duration                    : 2 h 8 min
Overall bit rate            : 1 606 kb/s
Movie name                  : Ek Villain 2014 - M@X @ Hon3y


Video
ID                          : 1
Format                      : AVC
Format/Info                 : Advanced Video Codec
Format profile              : High@L4.1
Format settings, CABAC      : Yes
Format settings, ReFrames   : 8 frames
Codec ID                    : V_MPEG4/ISO/AVC
Duration                    : 2 h 8 min
Bit rate                    : 1 412 kb/s
Width                       : 1 280 pixels
Height                      : 544 pixels
Display aspect ratio        : 2.35:1
Frame rate mode             : Constant
Frame rate                  : 24.000 FPS
Language                    : Hindi
Default                     : Yes
Forced                      : No

Audio
ID                          : 2
Format                      : AAC
Format/Info                 : Advanced Audio Codec
Format profile              : LC
Codec ID                    : A_AAC
Duration                    : 2 h 8 min
Bit rate                    : 192 kb/s
Channel(s)                  : 6 channels
Channel positions           : Front: L C R, Side: L R, LFE
Sampling rate               : 48.0 kHz
Frame rate                  : 46.875 FPS (1024 spf)
Compression mode            : Lossy
Delay relative to video     : 9 ms
Stream size                 : 177 MiB (12%)
Language                    : Hindi
Default                     : Yes
Forced                      : No

Text #1
ID                          : 3
Format                      : UTF-8
Codec ID                    : S_TEXT/UTF8
Codec ID/Info               : UTF-8 Plain Text
Duration                    : 2 h 6 min
Bit rate                    : 49 b/s
Count of elements           : 1567
Stream size                 : 45.8 KiB (0%)
Language                    : English
Default                     : Yes
Forced                      : No

Text #2
ID                          : 4
Format                      : UTF-8
Codec ID                    : S_TEXT/UTF8
Codec ID/Info               : UTF-8 Plain Text
Duration                    : 2 h 6 min
Bit rate                    : 71 b/s
Count of elements           : 1561
Stream size                 : 66.5 KiB (0%)
Language                    : Arabic
Default                     : No
Forced                      : No

Menu
00:00:00.000                : en:00:00:00.000
00:05:11.375                : en:00:05:11.375
00:08:22.250                : en:00:08:22.250
00:12:08.500                : en:00:12:08.500
00:20:23.417                : en:00:20:23.417
00:22:41.458                : en:00:22:41.458
00:29:17.417                : en:00:29:17.417
00:30:14.833                : en:00:30:14.833
00:32:44.417                : en:00:32:44.417
00:37:23.750                : en:00:37:23.750
00:43:33.083                : en:00:43:33.083
00:53:59.708                : en:00:53:59.708
01:02:31.625                : en:01:02:31.625
01:07:07.083                : en:01:07:07.083
01:16:15.417                : en:01:16:15.417
01:20:24.542                : en:01:20:24.542
01:25:49.000                : en:01:25:49.000
01:31:43.417                : en:01:31:43.417
01:36:48.000                : en:01:36:48.000
01:42:23.000                : en:01:42:23.000
01:45:54.417                : en:01:45:54.417
01:55:01.000                : en:01:55:01.000
02:04:50.333                : en:02:04:50.333

       
Category:Movies > Bollywood
Lang:Hindi
Total Size:1.45 GB

:download:

|| Download This Movie Via Single Resumable Links Size: 1.45 GB ||

Direct-1 Google Drive |

No comments:

Post a Comment