Crazy World Only 4 You

Sorry For The Inconvenience. If You are facing link dead or no google drive file access then inform us via comment

Latest Updates

Wednesday, 29 November 2017

Haraamkhor (2017) Hindi 720p WEB-DL x264 AAC 800MB - MkvCage


Poster


iMDB
Imdb Picture Title: Haraamkhor
Year: 2015
Runtime: 90 minutes
Votes: 1486
Rating: 6.4/10
Language: Hindi
Country: India
All Genres: Drama
Plot Outline: An unlikely love triangle unfolds when married professor, Shyam, has an illicit affair with his student, Sandhya, who in turn is trying to be wooed by her classmate Kamal. Haraamkhor is a prohibited love story witnessed by two adolescents.
Director: Shlok Sharma
Writing By: Shlok Sharma,
Produced By: S.M. Ferozeuddin Alameer,Siddhanta Ashdhir,Gaurav Dhingra,Guneet Dogra,Achin Jain,Deep Singh Kakkad,Anurag Kashyap,Guneet Monga,Varun Ralliaram,Arun Rangachari,Mozez Singh,Vishakha Singh,Shaan Vyas,
Plot:
An unlikely love triangle unfolds when married professor, Shyam, has an illicit affair with his student, Sandhya, who in turn is trying to be wooed by her classmate Kamal. Haraamkhor is a prohibited love story witnessed by two adolescents.
- Written by Official
Cast:
Nawazuddin Siddiqui as Shyam
Shweta Tripathi as Sandhya
Trimala Adhikari as Sunita
Irfan Khan as Kamal
Harish Khanna as Raghuvir
Mohd Samad as Mintu
Trailers:
Theatrical Trailer


Details
Name:Haraamkhor (2017) Hindi 720p WEB-DL x264 AAC 800MB - MkvCage
Description:
Haraamkhor (2017) Hindi 720p WEB-DL x264 AAC 800MB - MkvCage

 


   Format                                   : Matroska
   Format version                           : Version 4 / Version 2
   File size                                : 752 MiB
   Duration                                 : 1 h 32 min
   Overall bit rate                         : 1 138 kb/s

   
   Video
   ID                                       : 1
   Format                                   : AVC
   Format/Info                              : Advanced Video Codec
   Format profile                           : High@L4.1
   Format settings, CABAC                   : Yes
   Format settings, ReFrames                : 5 frames
   Codec ID                                 : V_MPEG4/ISO/AVC
   Duration                                 : 1 h 32 min
   Bit rate                                 : 1 133 kb/s
   Width                                    : 1 280 pixels
   Height                                   : 544 pixels
   Display aspect ratio                     : 2.35:1
   Frame rate mode                          : Constant
   Frame rate                               : 23.976 (24000/1001) FPS
   Color space                              : YUV
   Chroma subsampling                       : 4:2:0
   Bit depth                                : 8 bits
   Scan type                                : Progressive
   Bits/(Pixel*Frame)                       : 0.068
   Stream size                              : 748 MiB (100%)
   Default                                  : Yes
   Forced                                   : No
   
   Audio
   ID                                       : 2
   Format                                   : AAC
   Format/Info                              : Advanced Audio Codec
   Format profile                           : HE-AAC / LC
   Codec ID                                 : A_AAC
   Duration                                 : 1 h 32 min
   Bit rate                                 : 3 600 b/s
   Channel(s)                               : 2 channels
   Channel positions                        : Front: L R
   Sampling rate                            : 44.1 kHz / 22.05 kHz
   Frame rate                               : 21.533 FPS (1024 spf)
   Compression mode                         : Lossy
   Delay relative to video                  : 33 ms
   Stream size                              : 2.38 MiB (0%)
   Language                                 : Hindi
   Default                                  : Yes
   Forced                                   : No
   
   Text
   ID                                       : 3
   Format                                   : UTF-8
   Codec ID                                 : S_TEXT/UTF8
   Codec ID/Info                            : UTF-8 Plain Text
   Duration                                 : 1 h 24 min
   Bit rate                                 : 36 b/s
   Count of elements                        : 898
   Stream size                              : 22.3 KiB (0%)
   Language                                 : English
   Default                                  : Yes
   Forced                                   : No

 
Category:Movies > Bollywood
Lang:Hindi
Total Size:834.09 MB

:download:

|| Download This Movie Via Single Resumable Links Size: 834 MB ||

Direct-1 Google Drive | Direct-2 | Direct-3 |

Watch Online Click Here

No comments:

Post a Comment