Crazy World Only 4 You

Sorry For The Inconvenience. If You are facing link dead or no google drive file access then inform us via comment

Latest Updates

Thursday, 30 November 2017

Home on the Range (2004) BluRay 720p Dual Audio [English + Hindi] Esub


Poster


iMDB
Imdb Picture Title: Home on the Range
Year: 2004
Runtime: 76 minutes
Votes: 15495
Rating: 5.4/10
Language: English, Mandarin
Country: USA
All Genres: Animation, Adventure, Comedy, Family, Music, Western
Plot Outline: To save their farm, the resident animals go bounty hunting for a notorious outlaw.
Tagline: "Beef Thief"
Director: Will Finn
John Sanford
Writing By: Will Finn,John Sanford,Will Finn,John Sanford,Michael LaBash,Sam Levine,Mark Kennedy,Robert Lence,Keith Baxter,Mike Kunkel,Jason Lethcoe,Donnie Long,Michael Lucker,John Norton,Shirley Pierce,Brian Pimental,David Moses Pimentel,Ralph Zondag,Davy Liu,Don Hall,
Produced By: Alice Dewey Goldstone,David J. Steinberg,
Music: Alan Menken
Cast:
G.W. Bailey as Rusty, the Dog
Roseanne Barr as Maggie
Bobby Block as Piggy
Steve Buscemi as Wesley
Carole Cook as Pearl Gesner
Charlie Dell as Ollie, the Pig
Judi Dench as Mrs. Caloway
Charles Dennis as Rico
Marshall Efron as Larry, the Duck
Joe Flaherty as Jeb, the Goat
Trailers:
Home on the Range
Home on the Range Sing Along Songs



Details
Name:Home on the Range 2004 720p Esub BluRay Dual Audio English Hindi GOPISAHI
Description:

Format                         : Matroska
Format version                 : Version 4 / Version 2
File size                      : 480 MiB
Duration                       : 1 h 16 min
Overall bit rate               : 880 kb/s
Movie name                     : Home on the Range 2004

Video
Format                         : AVC
Codec ID                       : V_MPEG4/ISO/AVC
Duration                       : 1 h 16 min
Bit rate                       : 700 kb/s
Width                          : 1 280 pixels
Height                         : 720 pixels
Display aspect ratio           : 16:9
Frame rate mode                : Constant
Frame rate                     : 23.976 (24000/1001) FPS
Stream size                    : 382 MiB (79%)
Writing library                : x264

Audio #1
Format                         : AAC
Duration                       : 1 h 16 min
Bit rate                       : 88.3 kb/s
Channel(s)                     : 6 channels
Channel positions              : Front: L C R, Side: L R, LFE
Sampling rate                  : 44.1 kHz
Frame rate                     : 43.066 FPS (1024 SPF)
Stream size                    : 48.1 MiB (10%)
Language                       : English

Audio #2
Format                         : AAC
Duration                       : 1 h 16 min
Bit rate                       : 89.9 kb/s
Channel(s)                     : 6 channels
Channel positions              : Front: L C R, Side: L R, LFE
Sampling rate                  : 44.1 kHz
Frame rate                     : 43.066 FPS (1024 SPF)
Stream size                    : 49.1 MiB (10%)
Language                       : Hindi

Text
Language                       : English


Category:Movies > Hollywood Dub
Lang:Hindi
Total Size:480.47 MB

:download:

|| Download This Movie Via Single Resumable Links Size: 480 GB ||

Direct-1 Google Drive | Direct-2 | Direct-3 |

Watch Online Click Here

No comments:

Post a Comment