Crazy World Only 4 You

Sorry For The Inconvenience. If You are facing link dead or no google drive file access then inform us via comment

Latest Updates

Thursday, 30 November 2017

Raabta (2017) Hindi 720p DvDRip x264 AAC 5.1 ESub

Poster


iMDB
Imdb Picture Title: Raabta
Year: 2017
Runtime: 147 minutes
Votes: 128
Rating: 6.2/10
Language: Hindi
Country: India
All Genres: Comedy, Drama, Mystery, Romance
Plot Outline: In 2017, Shiv and Saira fall for each other and form an inseparable connection. Until, Saira crosses paths with a reincarnated lover from a previous lifetime who is determined to make her his lover again.
Director: Dinesh Vijan
Writing By: Garima,Siddharth,
Produced By: Homi Adajania,Murshid Akhtar,Hanif Chunawala,Priya Gupta,Madhav Roy Kapur,Zita Kisgergely,Bhushan Kumar,Prem Pillai,Poonam Shivdasani,Avi Udeshi,Dinesh Vijan,
Music: Pritam Chakraborty Jigar Saraiya
Plot:
In 2017, Shiv and Saira fall for each other and form an inseparable connection. Until, Saira crosses paths with a reincarnated lover from a previous lifetime who is determined to make her his lover again.

Cast:
Deepika Padukone as Dancer
Kriti Sanon as Saira
Sushant Singh Rajput as Shiv
Rajkummar Rao as
Jim Sarbh as
Varun Sharma as
Nidhi Subbaiah as
Miroslav Lhotka as Zak's bodyquard
Karan Chhabra as
Satendra Bagasi as Dhruv
Trailers:
Raabta Official Trailer



Details
Name:Raabta (2017) Hindi 720p DvDRip x264 AAC 5.1 ESu
Description:
Raabta (2017) Hindi 720p DvDRip x264 AAC 5.1 ESub



..::File Specs::..

Format                                   : Matroska
Format version                           : Version 4 / Version 2
File size                                : 1.28 GiB
Duration                                 : 2 h 37 min
Overall bit rate                         : 1 162 kb/s

Video
ID                                       : 1
Format                                   : AVC
Format/Info                              : Advanced Video Codec
Format profile                           : High@L3.1
Format settings, CABAC                   : Yes
Format settings, RefFrames               : 4 frames
Codec ID                                 : V_MPEG4/ISO/AVC
Duration                                 : 2 h 37 min
Bit rate                                 : 913 kb/s
Width                                    : 1 280 pixels
Height                                   : 544 pixels
Display aspect ratio                     : 2.35:1
Frame rate mode                          : Variable
Frame rate                               : 23.976 FPS

Audio
ID                                       : 2
Format                                   : AAC
Format/Info                              : Advanced Audio Codec
Format profile                           : LC
Codec ID                                 : A_AAC
Duration                                 : 2 h 25 min
Bit rate                                 : 265 kb/s
Channel(s)                               : 6 channels
Channel positions                        : Front: L C R, Side: L R, LFE
Sampling rate                            : 44.1 kHz
Frame rate                               : 43.066 FPS (1024 SPF)
Compression mode                         : Lossy
Stream size                              : 273 MiB (21%)
Default                                  : Yes
Forced                                   : No

Text
ID                                       : 3
Format                                   : UTF-8
Codec ID                                 : S_TEXT/UTF8
Codec ID/Info                            : UTF-8 Plain Text
Duration                                 : 2 h 26 min
Bit rate                                 : 44 b/s
Count of elements                        : 1665
Stream size                              : 47.8 KiB (0%)
Language                                 : English
Default                                  : Yes
Forced                                   : No

::::ScreenShots::::

Raabta2017Hindi720pDvDRipx264AACESub-Hon3y.mkv_20170824_053640.051.th.png Raabta2017Hindi720pDvDRipx264AACESub-Hon3y.mkv_20170824_053707.005.th.png Raabta2017Hindi720pDvDRipx264AACESub-Hon3y.mkv_20170824_053734.092.th.png Raabta2017Hindi720pDvDRipx264AACESub-Hon3y.mkv_20170824_053840.070.th.png Raabta2017Hindi720pDvDRipx264AACESub-Hon3y.mkv_20170824_053851.719.th.png Raabta2017Hindi720pDvDRipx264AACESub-Hon3y.mkv_20170824_053922.720.th.png
Category:Movies > Bollywood
Lang:Hindi
Total Size:1.28 GB

:download:

|| Download This Movie Via Single Resumable Links Size: 1.28 GB ||

Direct-1 Google Drive | Direct-2 | Direct-3 |

Watch Online Click Here

No comments:

Post a Comment