Crazy World Only 4 You

Sorry For The Inconvenience. If You are facing link dead or no google drive file access then inform us via comment

Latest Updates

Sunday, 26 November 2017

Sphere (1998) BluRay 720p Dual Audio [English + Hindi] Esub


Poster


iMDB
Imdb Picture Title: Sphere
Year: 1998
Runtime: 134 minutes
Votes: 88072
Rating: 6.1/10
Language: English
Country: USA
All Genres: Drama, Horror, Mystery, Sci-Fi, Thriller
Plot Outline: A spaceship is discovered under three hundred years' worth of coral growth at the bottom of the ocean.
Tagline: From the bestselling author of 'Jurassic Park' and 'The Lost World'
Director: Barry Levinson
Writing By: Michael Crichton,Kurt Wimmer,Stephen Hauser,Paul Attanasio,
Produced By: Patricia Churchill,Michael Crichton,Peter Giuliano,Barry Levinson,Andrew Wald,
Music: Elliot Goldenthal
Cast:
Dustin Hoffman as Dr. Norman Goodman
Sharon Stone as Dr. Elizabeth 'Beth' Halperin
Samuel L. Jackson as Dr. Harry Adams
Peter Coyote as Captain Harold C. Barnes
Liev Schreiber as Dr. Ted Fielding
Queen Latifah as Alice 'Teeny' Fletcher
Marga Gómez as Jane Edmunds
Huey Lewis as Helicopter Pilot
Bernard Hocke as Seaman
James Pickens Jr. as O.S.S.A. Instructor
Trailers:
Sphere



Details
Name:Sphere 1998 720p Esub BluRay Dual Audio English Hindi GOPISAHI
Description:

Format                         : Matroska

Format version                 : Version 4 / Version 2

File size                      : 927 MiB

Duration                       : 2 h 14 min

Overall bit rate               : 966 kb/s

Movie name                     : Sphere 1998 GOPISAHI


Video

Format                         : AVC

Codec ID                       : V_MPEG4/ISO/AVC

Duration                       : 2 h 14 min

Bit rate                       : 800 kb/s

Width                          : 1 280 pixels

Height                         : 536 pixels

Display aspect ratio           : 2.40:1

Frame rate mode                : Constant

Frame rate                     : 23.976 (24000/1001) FPS

Stream size                    : 768 MiB (83%)

Writing library                : x264


Audio #1

Format                         : AAC

Duration                       : 2 h 14 min

Bit rate                       : 84.9 kb/s

Channel(s)                     : 6 channels

Channel positions              : Front: L C R, Side: L R, LFE

Sampling rate                  : 44.1 kHz

Frame rate                     : 43.066 FPS (1024 SPF)

Stream size                    : 81.5 MiB (9%)

Language                       : English


Audio #2

Format                         : AAC

Duration                       : 2 h 10 min

Bit rate                       : 80.1 kb/s

Channel(s)                     : 6 channels

Channel positions              : Front: L C R, Side: L R, LFE

Sampling rate                  : 44.1 kHz

Frame rate                     : 43.066 FPS (1024 SPF)

Stream size                    : 74.8 MiB (8%)

Language                       : Hindi


Text

Language                       : English


Category:Movies > Hollywood Dub
Lang:Hindi
Total Size:926.92 MB

:download:

|| Download This Movie Via Single Resumable Links Size: 927 MB ||

Direct-1 Google Drive | Direct-2 | Direct-3 |

Watch Online Click Here

No comments:

Post a Comment