Spider-Man Homecoming 2017 720p Bluray x264 Dual Audio [Hindi Org + Eng] DD 5.0 - Msubs ~Ranvijay


Poster


iMDB
Imdb Picture Title: Spider-Man: Homecoming
Year: 2017
Runtime: 133 minutes
Votes: 14742
Rating: 8.3/10
Language: English
Country: USA
All Genres: Action, Adventure, Sci-Fi
Plot Outline: Several months after the events of Captain America: Civil War, Peter Parker, with the help of his mentor Tony Stark, tries to balance his life as an ordinary high school student in Queens, New York City while fighting crime as his superhero alter ego Spider-Man as a new threat, the Vulture, emerges.
Director: Jon Watts
Writing By: Jonathan Goldstein,John Francis Daley,Jon Watts,Christopher Ford,Chris McKenna,Erik Sommers,Jonathan Goldstein,John Francis Daley,Stan Lee,Steve Ditko,
Produced By: Victoria Alonso,Avi Arad,Mitchell Bell,Eric Hauserman Carroll,Louis D'Esposito,Kevin Feige,Jeremy Latcham,Stan Lee,Rachel O'Connor,Amy Pascal,Matt Tolmach,Patricia Whitcher,
Music: Michael Giacchino
Plot:
Thrilled by his experience with the Avengers, Peter returns home, where he lives with his Aunt May, under the watchful eye of his new mentor Tony Stark, Peter tries to fall back into his normal daily routine - distracted by thoughts of proving himself to be more than just your friendly neighborhood Spider-Man - but when the Vulture emerges as a new villain, everything that Peter holds most important will be threatened.
- Written by Benett Sullivan
Peter Parker is exploring the concept of becoming an Avenger. Tony Stark tries to help Peter, but he does not have total faith in Spider-Man to become a hero. And so Peter Parker, aka Spider-Man sets off to prove he is worthy to become an Avenger!
- Written by David Norton
A young Peter Parker/Spider-Man begins to navigate his newfound identity as the web-slinging super hero Spider-Man. Thrilled by his experience with the Avengers, Peter returns home, where he lives with his Aunt May, under the watchful eye of his new mentor Tony Stark. Peter tries to fall back into his normal daily routine - distracted by thoughts of proving himself to be more than just your friendly neighborhood Spider-Man - but when the Vulture emerges as a new villain, everything that Peter holds most important will be threatened.
- Written by Flick Direct
Several months after the events of Captain America: Civil War, Peter Parker, with the help of his mentor Tony Stark, tries to balance his life as an ordinary high school student in Queens, New York City while fighting crime as his superhero alter ego Spider-Man as a new threat, the Vulture, emerges.

Cast:
Tom Holland as Peter Parker / Spider-Man
Michael Keaton as Adrian Toomes / Vulture
Robert Downey Jr. as Tony Stark / Iron Man
Marisa Tomei as May Parker
Jon Favreau as Happy Hogan
Gwyneth Paltrow as Pepper Potts
Zendaya as Michelle
Donald Glover as Aaron Davis
Jacob Batalon as Ned
Laura Harrier as Liz
Trailers:
Trailer With Commentary
Spiderman Homecoming
IMDb Exclusive
International Trailer #3
Trailer #3
Trailer #2
Trailer #1



Details
Name:Spider-Man Homecoming (2017) 720p Bluray x264 Dual Audio [Hindi Org + Eng] DD 5.0 - Msubs ~Ranv...
Description:
Spider-Man Homecoming 2017 720p Bluray x264 Dual Audio [Hindi Org + Eng] DD 5.0 - Msubs ~Ranvijay

 

Thanks To Rohit Sharma For Untouched Audio




General
Format                                   : Matroska
Format version                           : Version 4 / Version 2
File size                                : 2.00 GiB
Duration                                 : 2 h 13 min
Overall bit rate                         : 2 141 kb/s

Video
ID                                       : 1
Format                                   : AVC
Format/Info                              : Advanced Video Codec
Format profile                           : High@L4.1
Format settings                          : CABAC / 9 Ref Frames
Format settings, CABAC                   : Yes
Format settings, RefFrames               : 9 frames
Codec ID                                 : V_MPEG4/ISO/AVC
Duration                                 : 2 h 13 min
Bit rate                                 : 1 200 kb/s
Width                                    : 1 280 pixels
Height                                   : 536 pixels
Display aspect ratio                     : 2.40:1
Frame rate mode                          : Constant
Frame rate                               : 23.976 (24000/1001) FPS
Color space                              : YUV
Chroma subsampling                       : 4:2:0
Bit depth                                : 8 bits
Scan type                                : Progressive
Bits/(Pixel*Frame)                       : 0.073
Stream size                              : 1.12 GiB (56%)
Title                                    : ~Ranvijay~
Default                                  : Yes
Forced                                   : No

Audio #1
ID                                       : 2
Format                                   : AC-3
Format/Info                              : Audio Coding 3
Format settings, Endianness              : Big
Codec ID                                 : A_AC3
Duration                                 : 2 h 13 min
Bit rate mode                            : Constant
Bit rate                                 : 448 kb/s
Channel(s)                               : 6 channels
Channel positions                        : Front: L C R, Side: L R, LFE
Sampling rate                            : 48.0 kHz
Frame rate                               : 31.250 FPS (1536 SPF)
Bit depth                                : 16 bits
Compression mode                         : Lossy
Stream size                              : 428 MiB (21%)
Title                                    : ~Ranvijay~
Language                                 : Hindi
Service kind                             : Complete Main
Default                                  : Yes
Forced                                   : No

Audio #2
ID                                       : 3
Format                                   : AC-3
Format/Info                              : Audio Coding 3
Format settings, Endianness              : Big
Codec ID                                 : A_AC3
Duration                                 : 2 h 13 min
Bit rate mode                            : Constant
Bit rate                                 : 448 kb/s
Channel(s)                               : 6 channels
Channel positions                        : Front: L C R, Side: L R, LFE
Sampling rate                            : 48.0 kHz
Frame rate                               : 31.250 FPS (1536 SPF)
Bit depth                                : 16 bits
Compression mode                         : Lossy
Stream size                              : 428 MiB (21%)
Title                                    : ~Ranvijay~
Language                                 : English
Service kind                             : Complete Main
Default                                  : No
Forced                                   : No

Text #1
ID                                       : 4
Format                                   : PGS
Muxing mode                              : zlib
Codec ID                                 : S_HDMV/PGS
Codec ID/Info                            : Picture based subtitle format used on BDs/HD-DVDs
Duration                                 : 2 h 3 min
Bit rate                                 : 117 b/s
Count of elements                        : 14
Stream size                              : 107 KiB (0%)
Title                                    : ~Ranvijay~
Language                                 : Hindi
Default                                  : No
Forced                                   : No

Text #2
ID                                       : 5
Format                                   : PGS
Muxing mode                              : zlib
Codec ID                                 : S_HDMV/PGS
Codec ID/Info                            : Picture based subtitle format used on BDs/HD-DVDs
Duration                                 : 2 h 12 min
Bit rate                                 : 38.6 kb/s
Count of elements                        : 3581
Stream size                              : 36.6 MiB (2%)
Title                                    : ~Ranvijay~
Language                                 : English
Default                                  : No
Forced                                   : No

Text #3
ID                                       : 6
Format                                   : PGS
Muxing mode                              : zlib
Codec ID                                 : S_HDMV/PGS
Codec ID/Info                            : Picture based subtitle format used on BDs/HD-DVDs
Duration                                 : 2 h 12 min
Bit rate                                 : 45.6 kb/s
Count of elements                        : 4421
Stream size                              : 43.3 MiB (2%)
Title                                    : ~Ranvijay~
Language                                 : English
Default                                  : No
Forced                                   : No

Text #4
ID                                       : 7
Format                                   : PGS
Muxing mode                              : zlib
Codec ID                                 : S_HDMV/PGS
Codec ID/Info                            : Picture based subtitle format used on BDs/HD-DVDs
Duration                                 : 2 h 3 min
Bit rate                                 : 160 b/s
Count of elements                        : 14
Stream size                              : 145 KiB (0%)
Title                                    : ~Ranvijay~
Language                                 : Tamil
Default                                  : No
Forced                                   : No

Text #5
ID                                       : 8
Format                                   : PGS
Muxing mode                              : zlib
Codec ID                                 : S_HDMV/PGS
Codec ID/Info                            : Picture based subtitle format used on BDs/HD-DVDs
Duration                                 : 2 h 3 min
Bit rate                                 : 125 b/s
Count of elements                        : 14
Stream size                              : 114 KiB (0%)
Title                                    : ~Ranvijay~
Language                                 : Telugu
Default                                  : No
Forced                                   : No

           
Category:Movies > Hollywood Dub
Lang:Hindi
Total Size:2.00 GB


:download:

|| Download This Movie Via Single Resumable Links Size: 2.00 GB ||

Direct-1 Google Drive

Post a Comment

0 Comments