Crazy World Only 4 You

Sorry For The Inconvenience. If You are facing link dead or no google drive file access then inform us via comment

Latest Updates

Saturday, 25 November 2017

Super Monsters (2017) Complete Season 01 1080p WEBRip [Hindi + English] DD 2.0 - Esub


Poster


iMDB
Imdb Picture Title: Super Monsters
Year: 2017
Runtime: 23 minutes
Votes: 91
Rating: 8.2/10
All Genres: Animation
Plot Outline: Preschool kids whose parents are the world's most famous monsters try to master their special powers while preparing for kindergarten.
Director: Sylvain Blais
Jimmy Tu
Writing By: Kaaren Lee Brown,Noelle Wright,
Produced By: Kaaren Lee Brown,Carson Loveday,Shea Wageman,Allen Bohbot,
Music: Allen Bohbot
Cast:
Elyse Maloway as Cleo Graves 19 episodes, 2017
Vincent Tong as Drac 19 episodes, 2017
Erin Mathews as Frankie 19 episodes, 2017
Andrea Libman as Katya 19 episodes, 2017
Alessandro Juliani as Lobo Howler 19 episodes, 2017
Nicole Anthony as Zoe Walker 19 episodes, 2017
Ian James Corlett as Igor 19 episodes, 2017
Britt McKillip as Esmie 19 episodes, 2017
Kathleen Barr as Glorb 19 episodes, 2017
Brian Drummond as Frankie's Dad 19 episodes, 2017



Details
Name:Super Monsters Season 1 Complete 1080p WEBRip [Hindi + English] DD 5.0 - Esub ~Ranvijay
Description:

Super Monsters Season 1 Complete 1080p WEBRip Dual Audio [Hindi + English] DD 2.0 - Esub ~Ranvijay

 

 

Format version                           : Version 4 / Version 2
File size                                : 755 MiB
Duration                                 : 23 min 10 s
Overall bit rate mode                    : Variable
Overall bit rate                         : 4 556 kb/s
Movie name                               : Super Monsters S01E07 1080p WEBRip Dual Audio [Hindi + English] DD 5.0 - Esub ~Ranvijay~

Video
ID                                       : 1
Format                                   : AVC
Format/Info                              : Advanced Video Codec
Format profile                           : Main@L4
Format settings                          : CABAC / 3 Ref Frames
Format settings, CABAC                   : Yes
Format settings, RefFrames               : 3 frames
Codec ID                                 : V_MPEG4/ISO/AVC
Duration                                 : 23 min 10 s
Bit rate mode                            : Variable
Bit rate                                 : 3 787 kb/s
Nominal bit rate                         : 4 020 kb/s
Maximum bit rate                         : 6 030 kb/s
Width                                    : 1 920 pixels
Height                                   : 1 080 pixels
Display aspect ratio                     : 16:9
Frame rate mode                          : Constant
Frame rate                               : 23.976 (24000/1001) FPS
Color space                              : YUV
Chroma subsampling                       : 4:2:0
Bit depth                                : 8 bits
Scan type                                : Progressive
Bits/(Pixel*Frame)                       : 0.076
Stream size                              : 628 MiB (83%)
Title                                    : ~Ranvijay~
Default                                  : Yes
Forced                                   : No

Audio #1
ID                                       : 2
Format                                   : AC-3
Format/Info                              : Audio Coding 3
Format settings, Endianness              : Big
Codec ID                                 : A_AC3
Duration                                 : 23 min 10 s
Bit rate mode                            : Constant
Bit rate                                 : 384 kb/s
Channel(s)                               : 6 channels
Channel positions                        : Front: L C R, Side: L R, LFE
Sampling rate                            : 48.0 kHz
Frame rate                               : 31.250 FPS (1536 SPF)
Bit depth                                : 16 bits
Compression mode                         : Lossy
Stream size                              : 63.7 MiB (8%)
Title                                    : ~Ranvijay~
Language                                 : English
Service kind                             : Complete Main
Default                                  : No
Forced                                   : No

Audio #2
ID                                       : 4
Format                                   : AC-3
Format/Info                              : Audio Coding 3
Format settings, Endianness              : Big
Codec ID                                 : A_AC3
Duration                                 : 23 min 10 s
Bit rate mode                            : Constant
Bit rate                                 : 384 kb/s
Channel(s)                               : 6 channels
Channel positions                        : Front: L C R, Side: L R, LFE
Sampling rate                            : 48.0 kHz
Frame rate                               : 31.250 FPS (1536 SPF)
Bit depth                                : 16 bits
Compression mode                         : Lossy
Stream size                              : 63.7 MiB (8%)
Title                                    : ~Ranvijay~
Language                                 : Hindi
Service kind                             : Complete Main
Default                                  : Yes
Forced                                   : No

Text #1
ID                                       : 3
Format                                   : UTF-8
Codec ID                                 : S_TEXT/UTF8
Codec ID/Info                            : UTF-8 Plain Text
Duration                                 : 21 min 5 s
Bit rate                                 : 68 b/s
Count of elements                        : 382
Stream size                              : 10.5 KiB (0%)
Title                                    : ~Ranvijay~
Language                                 : English
Default                                  : No
Forced                                   : No

                           
Category:TV > Hollywood
Lang:Hindi
Total Size:2.37 GB

:download:

|| Download This Tv Show Via Single Resumable Links Size: 2.37 GB ||

Direct-1 Google Drive |

Watch Online Click Here

No comments:

Post a Comment