The Adjustment Bureau (2011) BluRay 720p Dual Audio [English + Hindi] Esub

Poster


iMDB
Imdb Picture Title: The Adjustment Bureau
Year: 2011
Runtime: 106 minutes
Votes: 210017
Rating: 7.1/10
Language: English
Country: USA
All Genres: Romance, Sci-Fi, Thriller
Plot Outline: The affair between a politician and a contemporary dancer is affected by mysterious forces keeping the lovers apart.
Tagline: Your World Has Been Adjusted
Director: George Nolfi
Writing By: George Nolfi,Philip K. Dick,
Produced By: Michael Bederman,Bill Carraro,Isa Dick Hackett,Jonathan Gordon,Michael Hackett,Eric Kripke,Chris Moore,George Nolfi,Joel Viertel,
Music: Thomas Newman
Plot:
Do we control our destiny, or do unseen forces manipulate us? A man glimpses the future Fate has planned for him and realizes he wants something else. To get it, he must pursue across, under and through the streets of modern-day New York the only woman he's ever loved. On the brink of winning a seat in the U.S. Senate, ambitious politician David Norris (Matt Damon) meets beautiful contemporary ballet dancer Elise Sellas (Emily Blunt), a woman like none he's ever known. But just as he realizes he's falling for her, mysterious men conspire to keep the two apart. David learns he is up against the agents of Fate itself, the men of The Adjustment Bureau, who will do everything in their considerable power to prevent David and Elise from being together. In the face of overwhelming odds, he must either let her go and accept a predetermined path... or risk everything to defy Fate and be with her.
- Written by Universal Pictures
David Norris is an up and coming politician but on a night when he loses a Congressional election a chance meeting with a stranger, Elise Sellas, inspires him to make a brilliant concession speech that clearly makes him the front-runner for the next time around. They meet again by chance a few years later and are intent on seeing one another. What they do not realize is that there is a mysterious group of men calling themselves the Adjustment Bureau, who seem intent on keeping them apart. Soon David and Elise are on the run with the Bureau trying their best to separate them as they try to maintain David's predetermined future.
- Written by garykmcd
In New York, the prominent politician David Norris is disputing the election for the Senate but his past of bad boy makes him lose the election. He meets the stranger Elise Sellas hidden in the Waldorf's toilet and she tells that she had crashed a party and the security guards are chasing her. They start a conversation and they immediately fall in love with each other. However the guards find her and David does not see her again. However she inspires him to make a remarkable speech. Three years later, David is traveling by bus and he sees Elise on the sidewalk. He gets out of the bus to meet her and he learns that she is a dancer. Further, she gives her phone number to him and David promises to call her. However, strangers wearing hats approach to David and tell that they belong to the Adjustment Bureau and Elise and David must be kept apart. They destroy the piece of paper with her phone number and David is unable to contact Elise. When David meets Elise again, the strangers use their abilities to keep them apart. What is the reason why David and Elise can not be together?
- Written by Claudio Carvalho, Rio de Janeiro, Brazil
The affair between a politician and a contemporary dancer is affected by mysterious forces keeping the lovers apart.

Cast:
Matt Damon as David Norris
Emily Blunt as Elise Sellas
Lisa Thoreson as Suburban Mom
Florence Kastriner as Suburban Mom
Michael Kelly as Charlie Traynor
Phyllis MacBryde as Suburban Neighbor
Natalie Carter as Suburban Neighbor
Chuck Scarborough as Chuck Scarborough
Jon Stewart as Jon Stewart
Gregory P. Hitchen as U.S. Coast Guard Officer
Trailers:
The Adjustment Bureau -- Super Bowl Spot
The Adjustment Bureau


Details
Name:The Adjustment Bureau 2011 720p Esub BluRay Dual Audio English Hindi GOPISAHI
Description:


Format                         : Matroska
Format version                 : Version 4 / Version 2
File size                      : 751 MiB
Duration                       : 1 h 45 min
Overall bit rate               : 992 kb/s
Movie name                     : The Adjustment Bureau 2011

Video
Format                         : AVC
Codec ID                       : V_MPEG4/ISO/AVC
Duration                       : 1 h 45 min
Bit rate                       : 825 kb/s
Width                          : 1 280 pixels
Height                         : 696 pixels
Display aspect ratio           : 1.85:1
Frame rate mode                : Constant
Frame rate                     : 23.976 (24000/1001) FPS
Stream size                    : 624 MiB (83%)
Writing library                : x264

Audio #1
Format                         : AAC
Duration                       : 1 h 45 min
Bit rate                       : 81.6 kb/s
Channel(s)                     : 6 channels
Channel positions              : Front: L C R, Side: L R, LFE
Sampling rate                  : 44.1 kHz
Frame rate                     : 43.066 FPS (1024 SPF)
Stream size                    : 61.8 MiB (8%)
Language                       : English

Audio #2
Format                         : AAC
Duration                       : 1 h 41 min
Bit rate                       : 87.0 kb/s
Channel(s)                     : 6 channels
Channel positions              : Front: L C R, Side: L R, LFE
Sampling rate                  : 44.1 kHz
Frame rate                     : 43.066 FPS (1024 SPF)
Stream size                    : 62.9 MiB (8%)
Language                       : Hindi

Text
Language                       : English


Category:Movies > Hollywood Dub
Lang:Hindi
Total Size:750.69 MB

:download:

|| Download This Movie Via Single Resumable Links Size: 751 MB ||

Direct-1 Google Drive | Direct-2 | Direct-3 |

Watch Online Click Here

Post a Comment

0 Comments