The Lady (2011) BluRay 720p Dual Audio [English + Hindi] Esub

Poster


iMDB
Imdb Picture Title: The Lady
Year: 2011
Runtime: 132 minutes
Votes: 9265
Rating: 7.1/10
Language: English, Burmese
Country: France, UK
All Genres: Biography, Drama, History, Romance
Plot Outline: The story of Aung San Suu Kyi as she becomes the core of Burma's democracy movement, and her relationship with her husband, writer Michael Aris.
Tagline: Wife. Mother. Prisoner. Hero.
Director: Luc Besson
Writing By: Rebecca Frayn,
Produced By: Virginie Besson-Silla,Andy Harries,Didier Hoarau,Georges Langlois,Jane Robertson,Jean Todt,
Music: √Čric Serra
Cast:
Markus Waldow as Reporter
Michelle Yeoh as Aung San Suu Kyi
David Thewlis as Michael Aris
Jonathan Raggett as Kim Aris
Jonathan Woodhouse as Alexander Aris
Susan Wooldridge as Lucinda Philips
Benedict Wong as Karma
Htun Lin as General Ne Win
Agga Poechit as Than Shwe
Donatienne Dupont as Marie-Laure Aris
Trailers:
French Version
U.S. Version



Details
Name:The Lady 2011 720p Esub BluRay Dual Audio English Hindi GOPISAHI
Description:

Format                         : Matroska
Format version                 : Version 4 / Version 2
File size                      : 925 MiB
Duration                       : 2 h 12 min
Overall bit rate               : 979 kb/s
Movie name                     : The Lady 2011

Video
Format                         : AVC
Codec ID                       : V_MPEG4/ISO/AVC
Duration                       : 2 h 12 min
Bit rate                       : 800 kb/s
Width                          : 1 280 pixels
Height                         : 536 pixels
Display aspect ratio           : 2.40:1
Frame rate mode                : Constant
Frame rate                     : 24.000 FPS
Stream size                    : 756 MiB (82%)
Writing library                : x264

Audio #1
Format                         : AAC
Duration                       : 2 h 7 min
Bit rate                       : 93.7 kb/s
Channel(s)                     : 6 channels
Channel positions              : Front: L C R, Side: L R, LFE
Sampling rate                  : 44.1 kHz
Frame rate                     : 43.066 FPS (1024 SPF)
Stream size                    : 85.4 MiB (9%)
Language                       : Hindi

Audio #2
Format                         : AAC
Duration                       : 2 h 12 min
Bit rate                       : 85.7 kb/s
Channel(s)                     : 6 channels
Channel positions              : Front: L C R, Side: L R, LFE
Sampling rate                  : 44.1 kHz
Frame rate                     : 43.066 FPS (1024 SPF)
Stream size                    : 81.1 MiB (9%)
Language                       : English

Text
Language                       : English


Category:Movies > Hollywood Dub
Lang:English  English
Total Size:925.24 MB

:download:

|| Download This Movie Via Single Resumable Links Size: 925 MB ||

Direct-1 Google Drive | Direct-2 | Direct-3 |

Watch Online Click Here

Post a Comment

0 Comments