The Nut Job 2 : Nutty by Nature (2017) 720p BRRip x264 AAC


Poster


iMDB
Imdb Picture Title: The Nut Job 2: Nutty by Nature
Year: 2017
Runtime: 91 minutes
Votes: 400
Rating: 4.2/10
Language: English
Country: Canada, South Korea, USA
All Genres: Animation, Adventure, Comedy, Family
Plot Outline: Following the events of the first film, Surly and his friends must stop Oakton City's mayor from destroying their home to make way for a dysfunctional amusement park.
Tagline: Get ready. Get set. Get nuts!
Director: Cal Brunker
Writing By: Bob Barlen,Cal Brunker,Scott Bindley,Peter Lepeniotis,Peter Lepeniotis,Cal Brunker,Daniel Woo,
Produced By: Hongjoo Ahn,Yer Hyun Baek,Bob Barlen,William Bindley,Suk Whan Chang,Liang Chen,Chan Hyong Chung,Robert Eckmann,Hoe Jin Ha,Sang-Gil Han,Sen Jia,Myun Young Jung,Mike Karz,Dong Hyun Kim,Hong Kim,Hyungkon Kim,Jonghan Kim,Jongsoo Kim,Sunghwan Kim,Jae Woo Lee,Soo Hee Lee,Youngki Lee,Harry Linden,Lili Ma,Daniel Woo,Zhao Lan Wu,Sook Yhun,Takahashi Yoshimi,Guiping Zhang,Jun Zheng,
Music: Heitor Pereira
Plot:
Surly and his friends, Buddy, Andie and Precious discover that the mayor of Oakton City is cracking one big hustle to build a giant yet quite-shabby amusement park, which in turn will bulldoze their home, which is the city park, and it's up to them and the rest of the park animals to stop the mayor, along with his daughter and a mad animal control officer from getting away with his scheme, and take back the park.
- Written by Anonymous
Following the events of the first film, Surly and his friends must stop Oakton City's mayor from destroying their home to make way for a dysfunctional amusement park.
- Written by Anonymous
Cast:
Will Arnett as Surly
Katherine Heigl as Andie
Maya Rudolph as Precious
Jackie Chan as Mr. Feng
Isabela Moner as Heather
Peter Stormare as Gunther
Bobby Cannavale as Frankie
Bobby Moynihan as The Mayor
Jeff Dunham as Mole
Gabriel Iglesias as Jimmy
Trailers:
In Theaters Friday
Trailer #3
Trailer #2
Trailer #2
The Nut Job 2: Nutty By Nature Trailer
Trailer #1



Details
Name:The Nut Job 2 : Nutty by Nature (2017) 720p BRRip x264 AAC
Description:
The Nut Job 2 : Nutty by Nature (2017) 720p 850MB - MkvCage

 



   Format                                   : Matroska
   Format version                           : Version 4 / Version 2
   File size                                : 852 MiB
   Duration                                 : 1 h 31 min
   Overall bit rate                         : 1 307 kb/s
   Movie name                               : The.Nut.Job.2.Nutty.by.Nature.2017.720p.BRRip.850MB.MkvCage
   Encoded date                             : UTC 2017-11-04 02:51:10
   Writing application                      : mkvmerge v16.0.0 ('Protest') 64-bit
   Writing library                          : libebml v1.3.5 + libmatroska v1.4.8
   
   Video
   ID                                       : 2
   Format                                   : AVC
   Format/Info                              : Advanced Video Codec
   Format profile                           : High@L4.1
   Format settings, CABAC                   : Yes
   Format settings, ReFrames                : 9 frames
   Codec ID                                 : V_MPEG4/ISO/AVC
   Duration                                 : 1 h 31 min
   Bit rate                                 : 1 205 kb/s
   Width                                    : 1 280 pixels
   Height                                   : 688 pixels
   Display aspect ratio                     : 1.85:1
   Frame rate mode                          : Constant
   Frame rate                               : 23.976 (24000/1001) FPS
   Color space                              : YUV
   Chroma subsampling                       : 4:2:0
   Bit depth                                : 8 bits
   Scan type                                : Progressive
   Bits/(Pixel*Frame)                       : 0.057
   Stream size                              : 786 MiB (92%)
   Writing library                          : x264 core 133 r2334 a3ac64b
   Encoding settings                        : cabac=1 / ref=9 / deblock=1:0:0 / analyse=0x3:0x133 / me=umh / subme=10 / psy=1 / psy_rd=1.00:0.00 / mixed_ref=1 / me_range=24 / chroma_me=1 / trellis=2 / 8x8dct=1 / cqm=0 / deadzone=21,11 / fast_pskip=1 / chroma_qp_offset=-2 / threads=48 / lookahead_threads=5 / sliced_threads=0 / nr=0 / decimate=1 / interlaced=0 / bluray_compat=0 / constrained_intra=0 / bframes=6 / b_pyramid=2 / b_adapt=2 / b_bias=0 / direct=3 / weightb=1 / open_gop=0 / weightp=2 / keyint=240 / keyint_min=23 / scenecut=40 / intra_refresh=0 / rc_lookahead=60 / rc=2pass / mbtree=1 / bitrate=1205 / ratetol=1.0 / qcomp=0.60 / qpmin=10 / qpmax=51 / qpstep=4 / cplxblur=20.0 / qblur=0.5 / vbv_maxrate=62500 / vbv_bufsize=78125 / nal_hrd=none / ip_ratio=1.40 / aq=1:1.00
   Default                                  : Yes
   Forced                                   : No
   
   Audio
   ID                                       : 1
   Format                                   : AAC
   Format/Info                              : Advanced Audio Codec
   Format profile                           : HE-AAC / LC
   Codec ID                                 : A_AAC
   Duration                                 : 1 h 31 min
   Bit rate                                 : 100.0 kb/s
   Channel(s)                               : 2 channels
   Channel positions                        : Front: L R
   Sampling rate                            : 48.0 kHz / 24.0 kHz
   Frame rate                               : 23.438 FPS (1024 spf)
   Compression mode                         : Lossy
   Delay relative to video                  : 31 ms
   Stream size                              : 65.2 MiB (8%)
   Language                                 : English
   Default                                  : Yes
   Forced                                   : No
   
   Text
   ID                                       : 3
   Format                                   : UTF-8
   Codec ID                                 : S_TEXT/UTF8
   Codec ID/Info                            : UTF-8 Plain Text
   Duration                                 : 1 h 22 min
   Bit rate                                 : 66 b/s
   Count of elements                        : 1450
   Stream size                              : 40.3 KiB (0%)
   Language                                 : English
   Default                                  : Yes
   Forced                                   : No


-:SCREENSHOTS:-

         

 
Category:Movies > 720P Bluray
Lang:English  English
Total Size:852.47 MB


:download:

|| Download This Movie Via Single Resumable Links Size: 852MB ||

Direct-1 Google Drive |

Watch Online Click Here

Post a Comment

0 Comments