Balupu (2013) BluRay 720p x264 [Dual Audio] [Telugu 5.1 + Hindi] - Mafiaking - [D3Si MaNiaCs]


Poster


iMDB
Imdb Picture Title: Balupu
Year: 2013
Runtime: 145 minutes
Votes: 814
Rating: 6.2/10
Language: Telugu
Country: India
All Genres: Action, Comedy, Crime, Drama, Romance
Plot Outline: Ravi (Ravi Teja) works as a collection agent of ICICI in Bangalore and leads a happy life along with his friends and his father Mohan Rao (Prakash Raj) who wishes to see Ravi married to a ...
Director: Gopichand Malineni
Writing By: Bobby Kolli,Kona Venkat,Gopichand Malineni,Bobby Kolli,
Produced By: Rengarajan Jaiprakash,Param V. Potluri,Prasad V. Potluri,
Music: S. Thaman
Cast:
Ravi Teja as Ravi
Shruti Haasan as Shruti
Anjali as
Prakash Raj as
Nassar as
Brahmanandam as Crazy Mohan
Brahmaji as
Rao Ramesh as
Ali as
Ashutosh Rana as Poorna



Details
Name:Balupu (2013) BluRay 720p x264 [Dual Audio] [Telugu 5.1 + Hindi] - Mafiaking - [D3Si MaNiaCs]
Description:
Balupu (2013) BluRay 720p x264 [Dual Audio] [Telugu 5.1 + Hindi] - Mafiaking - [D3Si MaNiaCs]
 

Balupu_2013_Cover_By_-_Sworld4ufree.Blogspot.Com-

General
Format :                                 Matroska
Format version :                         Version 4 / Version 2
File size :                              1.30 GiB
Duration :                               2h 36mn
Overall bit rate :                       1 190 Kbps
Movie name :                             Balupu (2013) 720p Blu-Ray x264 [Dual-Audio] [Telugu 5.1 + Hindi] - Mafiaking - [D3Si MaNiaCs]

Video
ID :                                     1
Format :                                 AVC
Format/Info :                            Advanced Video Codec
Format profile :                         High@L3.1
Format settings, CABAC :                 Yes
Format settings, ReFrames :              4 frames
Codec ID :                               V_MPEG4/ISO/AVC
Duration :                               2h 36mn
Bit rate :                               900 Kbps
Width :                                  1 280 pixels
Height :                                 544 pixels
Display aspect ratio :                   2.35:1
Frame rate mode :                        Constant
Frame rate :                             24.000 fps
Color space :                            YUV
Chroma subsampling :                     4:2:0
Bit depth :                              8 bits
Scan type :                              Progressive
Bits/(Pixel*Frame) :                     0.054
Stream size :                            982 MiB (74%)
Title :                                  Mafiaking
Language :                               Telugu
Default :                                Yes
Forced :                                 No


Audio #1
ID :                                      2
Format :                                  AC-3
Format/Info :                             Audio Coding 3
Mode extension :                          CM (complete main)
Format settings, Endianness :             Big
Codec ID :                                A_AC3
Duration :                                2h 36mn
Bit rate mode :                           Constant
Bit rate :                                128 Kbps
Channel(s) :                              2 channels
Channel positions :                       Front: L R
Sampling rate :                           48.0 KHz
Bit depth :                               16 bits
Compression mode :                        Lossy
Stream size :                             143 MiB (11%)
Title :                                   Mafiaking
Language :                                Hindi
Default :                                 Yes
Forced :                                  No


Audio #2
ID :                                      3
Format :                                  AC-3
Format/Info :                             Audio Coding 3
Mode extension :                          CM (complete main)
Format settings, Endianness :             Big
Codec ID :                                A_AC3
Duration :                                2h 36mn
Bit rate mode :                           Constant
Bit rate :                                160 Kbps
Channel(s) :                              6 channels
Channel positions :                       Front: L C R, Side: L R, LFE
Sampling rate :                           48.0 KHz
Bit depth :                               16 bits
Compression mode :                        Lossy
Stream size :                             179 MiB (13%)
Title :                                   Mafiaking
Language :                                Telugu
Default :                                 No
Forced :                                  No
 

  7148504e432c6b54ab44b8230fa38d95.th.jpg c312e8f67cfbbb8eb5234221b10f08b2.th.jpg 09aa6924bc7f84eead5dd3160dae8211.th.jpg b12029355942ed15399abe98e4372e08.th.jpg ade83c8182808c3d077a6efc8414b0ae.th.jpg 93ee453eac6f35d98d68dd3036f0c4a9.th.jpg ddffda3fd5df66404cdc8b561814a4a8.th.jpg 75763d13210f2841a91839df37a85814.th.jpg 04c65b619dd5ce87f0216bc2c9129b10.th.jpg 5420088624b3ce864c7a5c2eaacaf49d.th.jpg 29c803069cfdd51b8363d44c0bba8a47.th.jpg 7ade8efbcbf2e43a2fe58ed477ebc229.th.jpg
Category:Movies > South Dub
Lang:Hindi
Total Size:1.31 GB

:download:

|| Download This Movie Via Single Resumable Links Size: 1.29 GB ||

Direct-1 Google Drive | Direct-2 | Direct-3 |

Watch Online Click Here

Post a Comment

0 Comments