Battle Of Sexes (2017) BluRay 720p x264 Dual Audio [English DD 5.1 + Hindi DD 5.1] - Mafiaking - M2Tv


Poster


iMDB
Imdb Picture Title: Battle of the Sexes
Year: 2017
Runtime: 121 minutes
Votes: 9424
Rating: 6.9/10
Language: English
Country: UK, USA
All Genres: Biography, Comedy, Drama, Sport
Plot Outline: The true story of the 1973 tennis match between World number one Billie Jean King and ex-champ and serial hustler Bobby Riggs.
Tagline: He made a bet. She made history.
Director: Jonathan Dayton
Valerie Faris
Writing By: Simon Beaufoy,
Produced By: Danny Boyle,Christian Colson,Karen Ruth Getchell,Robert Graf,Jeffrey Harlacker,Thomas Patrick Smith,
Music: Nicholas Britell
Cast:
Emma Stone as Billie Jean King
Steve Carell as Bobby Riggs
Andrea Riseborough as Marilyn Barnett
Natalie Morales as Rosie Casals
Sarah Silverman as Gladys Heldman
Bill Pullman as Jack Kramer
Alan Cumming as Cuthbert 'Ted' Tinling
Elisabeth Shue as Priscilla Riggs
Eric Christian Olsen as Lornie Kuhle
Fred Armisen as Rheo Blair
Trailers:
New Trailer
Trailer #1


Details
Name:Battle Of Sexes (2017) BluRay 720p x264 Dual Audio [English DD 5.1 + Hindi DD 5.1] - Mafiaking ...
Description:
Battle Of Sexes (2017) BluRay 720p x264 Dual Audio [English DD 5.1 + Hindi DD 5.1] - Mafiaking - M2Tv

 

Genere:                                   Biography, Comedy, Drama

General
Format :                                  Matroska
Format version :                          Version 4 / Version 2
File size :                               1.17 GiB
Duration :                                2 h 1 min
Overall bit rate :                        1 375 kb/s
Movie name :                              Battle Of Sexes (2017) 720p BluRay x264 [Dual-Audio][English DD5.1+Hindi DD5.1] - Mafiaking - M2Tv

Video
ID :                                      1
Format :                                  AVC
Codec ID :                                V_MPEG4/ISO/AVC
Duration :                                2 h 1 min
Bit rate :                                925 kb/s
Width :                                   1 280 pixels
Height :                                  536 pixels
Display aspect ratio :                    2.40:1
Frame rate mode :                         Constant
Frame rate :                              23.976 (24000/1001) FPS
Stream size :                             805 MiB (67%)
Title :                                   Mafiaking
Language :                                English
Default :                                 Yes
Forced :                                  No

Audio #1
ID :                                      2
Format :                                  AC-3
Duration :                                2 h 1 min
Bit rate mode :                           Constant
Bit rate :                                224 kb/s
Channel(s) :                              6 channels
Sampling rate :                           48.0 kHz
Stream size :                             195 MiB (16%)
Title :                                   Mafiaking
Language :                                Hindi
Service kind :                            Complete Main
Default :                                 Yes

Audio #2
ID :                                      3
Format :                                  AC-3
Duration :                                2 h 1 min
Bit rate mode :                           Constant
Bit rate :                                224 kb/s
Channel(s) :                              6 channels
Sampling rate :                           48.0 kHz
Stream size :                             195 MiB (16%)
Title :                                   Mafiaking
Language :                                English
Service kind :                            Complete Main
Default :                                 No

**To View Image In Full Size Click on Thumbnails**

                       

Battle of the Sexes (2017) πŸ‘Š
Hindi DD 5.1ChπŸ”ˆπŸ”ˆ Untouched OWN  πŸ’ͺ BluRay Audio
Where ever you share give a proper credit MrRajput 😎😎😎
Runtime BD 02:01:39.360
AC3, Hindi, 5.1 channels, 448kbps, 48kHz ~ MrRajput.ac3

 https://mega.nz/#!wCRFVKYK!dY_...2e0v5kujqdQJoJqLcrzA
 https://drive.google.com/open?...w8BYO6XtN9niccOhGaI4
 http://www.multiup.org/fa4f510ddb11dd4f0f924e52a822e9e7
 http://www115.zippyshare.com/v/sPrSLwQr/file.html

Hindi PGS
 https://mega.nz/#!5XJEXaiQ!xfZ...mG4Cpp1xCXCt2qYBMCEQ

https://drive.google.com/open?id=1G0VaSTa0duwsDh7oJfm3YPPQOz26O4H9

Category:Movies > Hollywood Dub
Lang:Hindi
Total Size:1.18 GB

:download:

|| Download This Movie Via Single Resumable Links Size: 1.17 GB ||

Direct-1 Google Drive | Direct-2 | Direct-3 |

Watch Online Click Here

Post a Comment

0 Comments