Blade Runner (1982) Final Cut BluRay 720p x264 Dual Audio {Hindi 2.0 Org DD-Eng} By TEAMSTEELxXx


Poster


iMDB
Imdb Picture Title: Blade Runner
Year: 1982
Runtime: 117 minutes
Votes: 496948
Rating: 8.2/10
Language: English, German, Cantonese, Japanese, Hungarian
Country: USA, Hong Kong, UK
All Genres: Sci-Fi, Thriller
Plot Outline: A blade runner must pursue and try to terminate four replicants who stole a ship in space and have returned to Earth to find their creator.
Tagline: A chilling, bold, mesmerizing, futuristic detective thriller.
Director: Ridley Scott
Writing By: Hampton Fancher,David Webb Peoples,Philip K. Dick,
Produced By: Charles de Lauzirika,Michael Deeley,Hampton Fancher,Brian Kelly,Ivor Powell,Paul Prischman,Jerry Perenchio,Ridley Scott,Run Run Shaw,Bud Yorkin,
Music: Vangelis
Plot:
In the futuristic year of 2019, Los Angeles has become a dark and depressing metropolis, filled with urban decay. Rick Deckard, an ex-cop, is a "Blade Runner". Blade runners are people assigned to assassinate "replicants". The replicants are androids that look like real human beings. When four replicants commit a bloody mutiny on the Off World colony, Deckard is called out of retirement to track down the androids. As he tracks the replicants, eliminating them one by one, he soon comes across another replicant, Rachel, who evokes human emotion, despite the fact that she's a replicant herself. As Deckard closes in on the leader of the replicant group, his true hatred toward artificial intelligence makes him question his own identity in this future world, including what's human and what's not human.
- Written by blazesnakes9
In the 21st century, a corporation develops human clones to be used as slaves in colonies outside the Earth, identified as replicants. In 2019, a former police officer is hired to hunt down a fugitive group living undercover in Los Angeles.
- Written by MadMovieManiac
In a cyberpunk vision of the future, man has developed the technology to create replicants - artificially created humanoids with short, fixed lifespans - which are illegal on Earth but are used in the off-world colonies. In Los Angeles, 2019, Deckard is a Blade Runner, a cop who specializes in terminating replicants. He is forced to come out of retirement when four replicants escape from an off-world colony and come to Earth.
- Written by Graeme Roy <gsr@cbmamiga.demon.co.uk>
Los Angeles, 2019: Rick Deckard of the LAPD's Blade Runner unit prowls the steel & micro-chip jungle of the 21st century for assumed humanoids known as 'replicants'. Replicants were declared illegal after a bloody mutiny on an Off-World Colony, and are to be terminated upon detection. Man's obsession with creating a being equal to himself has back-fired.
- Written by Matt McQuillan <mjment@hotmail.com>
Deckard, a policeman of the future, hunts down and terminates replicants, artificially created humans. He wants to get out of the force, but is drawn back in when 4 "skin jobs", a slang term for replicants, hijack a ship back to Earth. The city in which Deckard must search for his prey is a huge, sprawling, bleak vision of the future. This film questions what it is to be human, and why life is so precious.
- Written by Greg Bole <bole@life.bio.sunysb.edu>
A blade runner must pursue and try to terminate four replicants who stole a ship in space and have returned to Earth to find their creator.
- Written by Colin Tinto <cst@imdb.com>
Cast:
Harrison Ford as Rick Deckard
Rutger Hauer as Roy Batty
Sean Young as Rachael
Edward James Olmos as Gaff
M. Emmet Walsh as Bryant
Daryl Hannah as Pris
William Sanderson as J.F. Sebastian
Brion James as Leon Kowalski
Joe Turkel as Dr. Eldon Tyrell
Joanna Cassidy as Zhora
Trailers:
Blade Runner



Details
Name:Blade Runner (1982) Final Cut 720p BluRay x264 Dual Audio {Hindi 2.0 Org DD-Eng} By TEAMSTEELxXx
Description:
Blade Runner (1982) Final Cut 720p BluRay x264 Dual Audio {Hindi 2.0 Org DD-Eng} By TEAMSTEELxXx

f712c5253b75b7b7a70cdd171d9638a4

-:General:-
 
Format :                         Matroska
Format version :                 Version 4 / Version 2
File size :                      1.56 GiB
Duration :                       1h 52mn
Overall bit rate :               1 982 Kbps
Movie name :                     Blade Runner (1982) Final Cut 720p - TEAMSTEELxXx

Video
ID :                             1
Format :                         AVC
Format/Info :                    Advanced Video Codec
Format profile :                 High@L4.1
Format settings, CABAC :         Yes
Format settings, ReFrames :      4 frames
Codec ID :                       V_MPEG4/ISO/AVC
Duration :                       1h 52mn
Bit rate :                       1 500 Kbps
Width :                          1 280 pixels
Height :                         534 pixels
Display aspect ratio :           2.40:1
Frame rate mode :                Constant
Frame rate :                     25.000 fps
Original frame rate :            23.976 fps
Color space :                    YUV
Chroma subsampling :             4:2:0
Bit depth :                      8 bits
Scan type :                      Progressive
Bits/(Pixel*Frame) :             0.088
Stream size :                    1.20 GiB (77%)
Title :                          TEAMSTEELxXx
Writing library :                x264 core 144 r2525M 40bb568
Language :                       English
Default :                        Yes
Forced :                         Yes

Audio #1
ID :                             2
Format :                         AC-3
Format/Info :                    Audio Coding 3
Format profile :                 Dolby Digital
Mode extension :                 CM (complete main)
Format settings, Endianness :    Big
Codec ID :                       A_AC3
Duration :                       1h 52mn
Bit rate mode :                  Constant
Bit rate :                       224 Kbps
Channel(s) :                     2 channels
Channel positions :              Front: L R
Sampling rate :                  44.1 KHz
Compression mode :               Lossy
Stream size :                    181 MiB (11%)
Title :                          TEAMSTEELxXx
Language :                       Hindi
Default :                        Yes
Forced :                         Yes

Audio #2
ID :                             3
Format :                         AC-3
Format/Info :                    Audio Coding 3
Mode extension :                 CM (complete main)
Format settings, Endianness :    Big
Codec ID :                       A_AC3
Duration :                       1h 52mn
Bit rate mode :                  Constant
Bit rate :                       192 Kbps
Channel(s) :                     6 channels
Channel positions :              Front: L C R, Side: L R, LFE
Sampling rate :                  48.0 KHz
Compression mode :               Lossy
Stream size :                    155 MiB (10%)
Title :                          TEAMSTEELxXx
Language :                       English
Default :                        No
Forced :                         No

Menu
00:00:00.043 :                   en:Credits and Forward
00:02:58.221 :                   en:Eye on the City
00:04:32.023 :                   en:Leon's Emotional Response
00:07:25.154 :                   en:Street Scene; Interrupted Sushi
00:11:18.304 :                   en:The Old Blade Runner Magic
00:12:58.612 :                   en:The Replicants in Question
00:16:58.227 :                   en:Rachael; the Voight-Kampff Test
00:22:38.859 :                   en:Leon's Apartment
00:25:04.921 :                   en:Chew's Visitors
00:27:58.386 :                   en:If Only You Could See...
00:30:21.529 :                   en:A Visitor with Someone Else's Memories
00:36:19.220 :                   en:Pris Meets Sebastian
00:41:30.364 :                   en:Deckard's Dream
00:42:24.043 :                   en:Computer Photo Scan
00:45:56.380 :                   en:Manufactured Skin
00:48:44.506 :                   en:Miss Salome's Dressing Room
00:55:18.942 :                   en:Pursuing Zhora
00:57:27.320 :                   en:Retirement...Witnessed
00:59:45.041 :                   en:How Many to Go?
01:01:49.457 :                   en:Wake Up. Time to Die.
01:03:16.044 :                   en:I Am the Business. I Owe You One.
01:07:44.437 :                   en:The Real Thing?
01:12:39.565 :                   en:There's Only Two of Us Now.
01:16:13.570 :                   en:We Need You, Sebastian.
01:20:12.517 :                   en:The Right Moves
01:22:34.576 :                   en:The Prodigal Son Brings Death
01:27:07.557 :                   en:No Way to Treat a Friend
01:28:45.280 :                   en:Death Among the Menagerie
01:34:02.263 :                   en:Proud of Yourself, Little Man?
01:36:54.351 :                   en:Wounded Animals
01:41:12.359 :                   en:The Building Ledge
01:42:37.319 :                   en:The Roof
01:44:31.850 :                   en:To Live in Fear
01:45:56.310 :                   en:Like Tears in Rain. But Then Again, Who Does?
01:49:04.539 :                   en:Souvenir of Dreams
01:52:21.778 :                   en:End Credits


Hindi Audio Source Original VCD by Rockey.......Thanks
Perfect Synced by TEAMSTEELxXx (Thanks)




Note: No Watermarks/Tags in Audio & Video ;).... Enjoy Movie:) 


9cf9df4b298938d4e6a035ec4a5fe5fa.th.png a081a823adf95cc081b5561b28dc47dd.th.png 317e997b0994b86257afbafb6e6eb7c1.th.png e501cb2442c8f210371a287ae34d0ab2.th.png e2434c1235410bd648e6c9d246a34495.th.png 59bc16264ae73139f7cc66233ab6a4e4.th.png e32a2c04242217c231ea626e06aab6ba.th.png 2b4db015a0d070fc4303bdeaa362a72a.th.png b9499985c42ccf1a355240fcc146653e.th.png bf75a8d2e4ed338c9c4fba7e0c310e26.th.png
Category:Movies > Hollywood Dub
Lang:Hindi
Total Size:1.58 GB

:download:

|| Download This Movie Via Single Resumable Links Size: 1.56 GB ||

Direct-1 Google Drive | Direct-2 | Direct-3 |

Watch Online Click Here

Post a Comment

0 Comments