Fukrey (2013) Hindi 720p BluRay x264 AC3 5.1 - Mafiaking


Poster


iMDB
Imdb Picture Title: Fukrey
Year: 2013
Runtime: 139 minutes
Votes: 7781
Rating: 6.9/10
Language: Hindi
Country: India
All Genres: Comedy, Drama, Romance
Plot Outline: The paths of four dream-chasing college friends cross with an array of colourful characters, from a tough-talking Punjabi female don to a Jugaad Baaz college watchman. Mayhem ensues.
Director: Mrighdeep Lamba
Writing By: Mrighdeep Lamba,Mrighdeep Lamba,Vipul Vig,Vipul Vig,
Produced By: Farhan Akhtar,Vikesh Bhutani,Kaushik Guha,Ritesh Sidhwani,Rupali Suresh Vaidya,
Music: Ram Sampath
Plot:
College. Three of the most important years of your life. Three years of studies (at times) and sheer indulgence. Indulgence in all the little pleasures that a carefree life has to offer. But it isn't always about ragging, fuchacha parties, college fests, races, and churning out ways to whack some extra pocket money from your parents. It's sometimes hard, ugly, and complicated. More so, when you really need to get admission in the coolest college in town and you know you don't deserve it. And to top that, you get yourself involved in the most bizarre stations that could crack you into pieces before you could crack it.
- Written by Excel Entertainment
The paths of four dream-chasing college friends cross with an array of colourful characters, from a tough-talking Punjabi female don to a Jugaad Baaz college watchman. Mayhem ensues.
- Written by Production
Cast:
Altaf as Constable (in car)
Priya Anand as Priya
Anurag Arora as Narco Officer
Jatinder Bakshi as Jagrata Singer
Rajat Bhalla as Lottery Seller 3
Richa Chadha as Bholi Punjaban
Kumkum Das as Zafar's Mother
Kumkum Ajit Kumar Das as Zafar's mother
Kapil Dubey as Mrs. chadda son
Ali Fazal as Zafar


Details
Name:Fukrey (2013) Hindi 720p BluRay x264 AC3 5.1 - Mafiaking
Description:
Fukrey (2013) Hindi 720p BluRay x264 AC3 5.1 - Mafiaking

 


General

Format : Matroska
Format version : Version 4 / Version 2
File size : 987 MiB
Duration : 2h 20mn
Overall bit rate : 979 Kbps


Video
ID : 1
Format : AVC
Format/Info : Advanced Video Codec
Format profile : High@L3.1
Format settings, CABAC : Yes
Format settings, ReFrames : 4 frames
Codec ID : V_MPEG4/ISO/AVC
Duration : 2h 20mn
Bit rate : 849 Kbps
Width : 1 280 pixels
Height : 536 pixels
Display aspect ratio : 2.40:1
Frame rate mode : Constant
Frame rate : 24.000 fps
Color space : YUV
Chroma subsampling : 4:2:0
Bit depth : 8 bits
Scan type : Progressive
Bits/(Pixel*Frame) : 0.052
Stream size : 838 MiB (85%)
Title : Mafiaking

Language : Hindi
Default : Yes
Forced : No


Audio
ID : 2
Format : AC-3
Format/Info : Audio Coding 3
Mode extension : CM (complete main)
Format settings, Endianness : Big
Codec ID : A_AC3
Duration : 2h 20mn
Bit rate mode : Constant
Bit rate : 128 Kbps
Channel(s) : 6 channels
Channel positions : Front: L C R, Side: L R, LFE
Sampling rate : 48.0 KHz
Bit depth : 16 bits
Compression mode : Lossy
Stream size : 129 MiB (13%)
Title : Mafiaking
Language : Hindi
Default : Yes
Forced : No


SAMPLE WITH IN TORRENT (IN DUAL AUDIO)

                           
Category:Movies > Bollywood
Lang:Hindi
Total Size:992.97 MB

:download:

|| Download This Movie Via Single Resumable Links Size: 987 MB ||

Direct-1 Google Drive | Direct-2 | Direct-3 |

Watch Online Click Here

Post a Comment

0 Comments