Crazy World Only 4 You

Sorry For The Inconvenience. If You are facing link dead or no google drive file access then inform us via comment

Latest Updates

Saturday, 16 December 2017

Golmaal Again (2017) Hindi 720p BluRay x264 AAC 5 1 - Hon3y


Poster


iMDB
Imdb Picture Title: Golmaal Again
Year: 2017
Runtime: 140 minutes
Votes: 312
Rating: 6.1/10
Language: Hindi
Country: India
All Genres: Action, Comedy, Fantasy, Horror
Plot Outline: The fourth installment of the Golmaal franchise.
Director: Rohit Shetty
Writing By: Yunus Sajawal,Farhad Sajid,Rohit Shetty,
Produced By: Shree Ashtavinayak,Rohit Shetty,
Music: Pritam Chakraborty
Cast:
Ajay Devgn as Gopal
Arshad Warsi as Madhav
Tusshar Kapoor as Lucky
Shreyas Talpade as Laxman
Kunal Khemu as Laxman
Parineeti Chopra as Priyanka
Tabu as Rukmini
Vrajesh Hirjee as
Ashwini Kalsekar as
Sachin Khedekar as Baba
Trailers:
Official 'Golmaal Again' Trailer

Details
Name:Golmaal.Again.2017.Hindi.720p.BluRay.x264.AAC.5.1.-.Hon3y
Description:

Source                      : BD50 @ Hon3yHD

Format                      : Matroska
Format version              : Version 4 / Version 2
File size                   : 1.20 GiB
Duration                    : 2 h 31 min
Overall bit rate            : 1 134 kb/s
Movie name                  : Golmaal Again---Pasha@Hon3yHD

Video
ID                          : 1
Format                      : AVC
Format/Info                 : Advanced Video Codec
Format profile              : High@L4.1
Format settings, CABAC      : Yes
Format settings, RefFrames  : 12 frames
Codec ID                    : V_MPEG4/ISO/AVC
Duration                    : 2 h 31 min
Bit rate                    : 940 kb/s
Width                       : 1 280 pixels
Height                      : 536 pixels
Display aspect ratio        : 2.40:1
Frame rate mode             : Constant
Frame rate                  : 24.000 FPS

Audio
ID                          : 2
Format                      : AAC
Format/Info                 : Advanced Audio Codec
Format profile              : LC
Codec ID                    : A_AAC
Duration                    : 2 h 31 min
Bit rate                    : 192 kb/s
Channel(s)                  : 6 channels
Channel positions           : Front: L C R, Side: L R, LFE
Sampling rate               : 48.0 kHz
Frame rate                  : 46.875 FPS (1024 SPF)
Compression mode            : Lossy
Delay relative to video     : 9 ms
Stream size                 : 207 MiB (17%)
Title                       : Hindi---Pasha@Hon3yHD

Text
ID                          : 3
Format                      : UTF-8
Codec ID                    : S_TEXT/UTF8
Codec ID/Info               : UTF-8 Plain Text
Duration                    : 2 h 25 min
Bit rate                    : 64 b/s
Count of elements           : 2060
Stream size                 : 68.6 KiB (0%)
Title                       : English---Pasha@Hon3yHD
Language                    : English
Default                     : Yes
Forced                      : No

Menu
00:00:00.000                : en:00:00:00.000
00:01:43.625                : en:00:01:43.625
00:04:31.833                : en:00:04:31.833
00:08:14.000                : en:00:08:14.000
00:12:31.417                : en:00:12:31.417
00:24:43.583                : en:00:24:43.583
00:37:00.208                : en:00:37:00.208
00:41:50.000                : en:00:41:50.000
00:46:28.000                : en:00:46:28.000
00:58:47.250                : en:00:58:47.250
01:01:19.750                : en:01:01:19.750
01:10:08.958                : en:01:10:08.958
01:17:27.250                : en:01:17:27.250
01:20:28.958                : en:01:20:28.958
01:37:59.042                : en:01:37:59.042
01:40:08.000                : en:01:40:08.000
01:41:47.208                : en:01:41:47.208
01:47:48.000                : en:01:47:48.000
02:18:16.458                : en:02:18:16.458

       
Category:Movies > Bollywood
Lang:Hindi
Total Size:1.20 GB

:download:

|| Download This Movie Via Single Resumable Links Size: 1.20 GB ||

Direct-1 Google Drive | Direct-2 | Direct-3 |

Watch Online Click Here

No comments:

Post a Comment