Crazy World Only 4 You

Sorry For The Inconvenience. If You are facing link dead or no google drive file access then inform us via comment

Latest Updates

Monday, 11 December 2017

Hemingway and Gellhorn (2012) BluRay 1080p Dual Audio [English + Hindi] x264 Esub


Poster


iMDB
Imdb Picture Title: Hemingway & Gellhorn
Year: 2012
Runtime: 155 minutes
Votes: 7402
Rating: 6.3/10
Language: English
Country: USA
All Genres: Biography, Drama, Romance
Plot Outline: A drama centered on the romance between Ernest Hemingway and World War II correspondent Martha Gellhorn, Hemingway's inspiration for For Whom the Bell Tolls, and the only woman who ever asked for a divorce from the writer.
Tagline: We were good in war. And when there was no war, we made our own.
Director: Philip Kaufman
Writing By: Jerry Stahl,Barbara Turner,
Produced By: Mark Armstrong,James Gandolfini,Trish Hofmann,Peter Kaufman,Alexandra E. Ryan,Nancy Sanders,Mike Topoozian,Barbara Turner,Christa Vausbinder,
Music: Javier Navarrete
Cast:
Nicole Kidman as Martha Gellhorn
Clive Owen as Ernest Hemingway
David Strathairn as John Dos Passos
Rodrigo Santoro as Paco Zarra
Molly Parker as Pauline Hemingway
Parker Posey as Mary Welsh Hemingway
Tony Shalhoub as Mikhail Koltsov
Santiago Cabrera as Robert Capa
Lars Ulrich as Joris Ivens
Peter Coyote as Maxwell Perkins


Details
Name:Hemingway and Gellhorn 2012 1080p Esub BluRay Dual Audio English Hindi GOPISAHI
Description:

Format                         : Matroska
Format version                 : Version 4 / Version 2
File size                      : 1.80 GiB
Duration                       : 2 h 34 min
Overall bit rate               : 1 662 kb/s
Movie name                     : Hemingway and Gellhorn 2012 GOPISAHI

Video
Format                         : AVC
Codec ID                       : V_MPEG4/ISO/AVC
Duration                       : 2 h 34 min
Bit rate                       : 1 400 kb/s
Width                          : 1 920 pixels
Height                         : 1 080 pixels
Display aspect ratio           : 16:9
Frame rate mode                : Constant
Frame rate                     : 23.976 (24000/1001) FPS
Stream size                    : 1.51 GiB (84%)
Writing library                : x264

Audio #1
Format                         : AAC
Duration                       : 2 h 34 min
Bit rate                       : 132 kb/s
Channel(s)                     : 6 channels
Channel positions              : Front: L C R, Side: L R, LFE
Sampling rate                  : 44.1 kHz
Frame rate                     : 43.066 FPS (1024 SPF)
Stream size                    : 145 MiB (8%)
Language                       : English

Audio #2
Format                         : AAC
Duration                       : 2 h 30 min
Bit rate                       : 132 kb/s
Channel(s)                     : 6 channels
Channel positions              : Front: L C R, Side: L R, LFE
Sampling rate                  : 44.1 kHz
Frame rate                     : 43.066 FPS (1024 SPF)
Stream size                    : 142 MiB (8%)
Language                       : Hindi

Text
Language                       : English


Category:Movies > Hollywood Dub
Lang:Hindi
Total Size:1.80 GB

:download:

|| Download This Movie Via Single Resumable Links Size: 1.80 GB ||

Direct-1 Google Drive | Direct-2 | Direct-3 |

Watch Online Click Here

No comments:

Post a Comment