It (2017) BluRay 720p x264 Dual Audio [Hindi - English] AAC 5.1...Hon3y


Poster


iMDB
Imdb Picture Title: It
Year: 2017
Runtime: 135 minutes
Votes: 14971
Rating: 8.3/10
Language: English
Country: USA
All Genres: Drama, Horror
Plot Outline: A group of bullied kids band together when a monster, taking the appearance of a clown, begins hunting children.
Tagline: You'll float too.
Director: Andy Muschietti
Writing By: Chase Palmer,Cary Fukunaga,Gary Dauberman,Stephen King,
Produced By: Richard Brener,Doug Davison,Toby Emmerich,Marty P. Ewing,Seth Grahame-Smith,Walter Hamada,David Katzenberg,Niija Kuykendall,Roy Lee,Dan Lin,Barbara Muschietti,Dave Neustadter,Jon Silk,
Music: Benjamin Wallfisch
Cast:
Jaeden Lieberher as Bill Denbrough
Jeremy Ray Taylor as Ben Hanscom
Sophia Lillis as Beverly Marsh
Finn Wolfhard as Richie Tozier
Chosen Jacobs as Mike Hanlon
Jack Dylan Grazer as Eddie Kaspbrak
Wyatt Oleff as Stanley Uris
Bill SkarsgÄrd as Pennywise
Nicholas Hamilton as Henry Bowers
Jake Sim as Belch Huggins
Trailers:
Trailer #2
MTV Trailer
Teaser Trailer


     

Details
Name:It (2017) BluRay 720p x264 Dual Audio [Hindi-English] AAC 5.1...Hon3y
Description:

It (2017) BluRay 720p x264 Dual Audio [Hindi-English] AAC 5.1...Hon3y

f8f8777e-3498-4984-a22e-2f768932eb92-jpeg

General
Format                                   : Matroska
Format version                           : Version 4 / Version 2
File size                                : 1.20 GiB
Duration                                 : 2 h 14 min
Overall bit rate                         : 1 272 kb/s
Movie name                               : It---Pasha@Hon3yHD

Video
Format                                   : AVC
Format/Info                              : Advanced Video Codec
Format profile                           : High@L4.1
Format settings, CABAC                   : Yes
Format settings, RefFrames               : 12 frames
Codec ID                                 : V_MPEG4/ISO/AVC
Duration                                 : 2 h 14 min
Bit rate                                 : 886 kb/s
Width                                    : 1 280 pixels
Height                                   : 536 pixels
Display aspect ratio                     : 2.40:1
Frame rate mode                          : Constant
Frame rate                               : 23.976 (24000/1001) FPS
Color space                              : YUV
Chroma subsampling                       : 4:2:0
Bit depth                                : 8 bits
Scan type                                : Progressive
Bits/(Pixel*Frame)                       : 0.054
Stream size                              : 853 MiB (70%)
Title                                    : It---Pasha@Hon3yHD


Hindi Audio Credits To Mr.Rajput... Thank You Bro

Audio 1
Format                                   : AAC
Format/Info                              : Advanced Audio Codec
Format profile                           : LC
Codec ID                                 : A_AAC
Duration                                 : 2 h 14 min
Bit rate                                 : 192 kb/s
Channel(s)                               : 6 channels
Channel positions                        : Front: L C R, Side: L R, LFE
Sampling rate                            : 48.0 kHz
Frame rate                               : 46.875 FPS (1024 SPF)
Compression mode                         : Lossy
Delay relative to video                  : 9 ms
Stream size                              : 185 MiB (15%)
Title                                    : Hindi---Pasha@Hon3yHD
Language                                 : Hindi
Default                                  : Yes
Forced                                   : Yes

Audio 2
Format                                   : AAC
Format/Info                              : Advanced Audio Codec
Format profile                           : LC
Codec ID                                 : A_AAC
Duration                                 : 2 h 14 min
Bit rate                                 : 192 kb/s
Channel(s)                               : 6 channels
Channel positions                        : Front: L C R, Side: L R, LFE
Sampling rate                            : 48.0 kHz
Frame rate                               : 46.875 FPS (1024 SPF)
Compression mode                         : Lossy
Delay relative to video                  : 9 ms
Stream size                              : 185 MiB (15%)
Title                                    : English---Pasha@Hon3yHD
Language                                 : English
Default                                  : No

Chapters Menu
00:00:00.000                             : en:00:00:00.000
00:09:23.646                             : en:00:09:23.646
00:18:31.861                             : en:00:18:31.861
00:28:26.163                             : en:00:28:26.163
00:38:36.981                             : en:00:38:36.981
00:48:19.438                             : en:00:48:19.438
00:59:30.776                             : en:00:59:30.776
01:08:52.795                             : en:01:08:52.795
01:16:58.823                             : en:01:16:58.823
01:26:52.958                             : en:01:26:52.958
01:38:15.306                             : en:01:38:15.306
01:48:40.973                             : en:01:48:40.973
02:04:07.899                             : en:02:04:07.899
02:09:05.655                             : en:02:09:05.655

1e0d4c69ffca414996bb98c4ab25d647.th.png 00cb8a813d2718ac922b9d7befb9346d.th.png ed8377e4c16a390b74f15c0d7122ab00.th.png 59b5eefdc750e5812bfb3ee734ecd877.th.png 3fc8727816a5655790c1a9d5949d7422.th.png 4756d8925da6f744782fd2eba8f42541.th.png
Category:Movies > Hollywood Dub
Lang:Hindi
Total Size:1.20 GB

:download:

|| Download This Movie Via Single Resumable Links Size: 1.20 GB ||

Direct-1 Google Drive | Direct-2 | Direct-3 |

Watch Online Click Here

Post a Comment

1 Comments

  1. Amazing movie. Best horror film I've seen...

    ReplyDelete