Crazy World Only 4 You

Sorry For The Inconvenience. If You are facing link dead or no google drive file access then inform us via comment

Latest Updates

Tuesday, 12 December 2017

Jeepers Creepers III (2017) 720p BRRip x264 AAC 5.1 ESub-Hon3y


Poster


iMDB
Imdb Picture Original Title: Jeepers Creepers 3
Title: Jeepers Creepers III
Year: 2017
Runtime: 100 minutes
Votes: 1130
Rating: 5.9/10
Language: English
Country: USA
All Genres: Horror, Mystery, Thriller
Plot Outline: Sheriff Dan Tashtego and a team of creeper hunters enlist the help of officer Davis Tubbs to help stop the monster's eating spree.
Tagline: Its time has come
Director: Victor Salva
Writing By: Victor Salva,Victor Salva,
Produced By: Rob Baker,Richard Brandes,Gurpreet Chandhoke,Kirk D'Amico,Rudolph A. Galera,Ari Golan,Lawrence Golan,Kevin Kasha,Michael Musante,Chris Nassif,Michael Ohoven,Jim Pesoli,Michael Roban,Victor Salva,Jake Seal,Stephen Shea,Brad Southwick,Stan Spry,Danny Zamost,
Music: Andrew Morgan Smith
Cast:
Meg Foster as Gaylen Brandon
Gina Philips as Trisha Jenner
Jonathan Breck as The Creeper
Stan Shaw as Sheriff Tashtego
Chester Rushing as Buddy Hooks
Don Yesso as SWAT Team #1
Gabrielle Haugh as Addison Brandon
Carrie Lazar as Beth Mathers
Michael Papajohn as Frank - Tow Truck Driver
Joyce Giraud as Deputy Dana Lang



Details
Name:Jeepers Creepers III 2017 720p BRRip x264 AAC 5.1 ESub-Hon3y
Description:
Jeepers Creepers III 2017 720p BRRip x264 AAC 5.1 ESub-Hon3y

Format                                   : Matroska
Format version                           : Version 4 / Version 2
File size                                : 1 011 MiB
Duration                                 : 1 h 41 min
Overall bit rate                         : 1 394 kb/s
Movie name                               : Jeepers.Creepers.III.2017-Hon3y


Video
ID                                       : 1
Format                                   : AVC
Format/Info                              : Advanced Video Codec
Format profile                           : High@L4.1
Format settings                          : CABAC / 8 Ref Frames
Format settings, CABAC                   : Yes
Format settings, RefFrames               : 8 frames
Codec ID                                 : V_MPEG4/ISO/AVC
Duration                                 : 1 h 41 min
Bit rate                                 : 1 200 kb/s
Width                                    : 1 280 pixels
Height                                   : 536 pixels
Display aspect ratio                     : 2.40:1
Frame rate mode                          : Constant
Frame rate                               : 23.976 (24000/1001) FPS
Language                                 : English
Default                                  : Yes
Forced                                   : No

Audio
ID                                       : 2
Format                                   : AAC
Format/Info                              : Advanced Audio Codec
Format profile                           : LC
Codec ID                                 : A_AAC-2
Duration                                 : 1 h 41 min
Bit rate                                 : 192 kb/s
Channel(s)                               : 6 channels
Channel positions                        : Front: L C R, Side: L R, LFE
Sampling rate                            : 48.0 kHz
Frame rate                               : 46.875 FPS (1024 SPF)
Compression mode                         : Lossy
Delay relative to video                  : 9 ms
Stream size                              : 139 MiB (14%)
Language                                 : English
Default                                  : Yes
Forced                                   : No

Text
ID                                       : 3
Format                                   : UTF-8
Codec ID                                 : S_TEXT/UTF8
Codec ID/Info                            : UTF-8 Plain Text
Duration                                 : 1 h 32 min
Bit rate                                 : 32 b/s
Count of elements                        : 857
Stream size                              : 22.3 KiB (0%)
Language                                 : English
Default                                  : Yes
Forced                                   : No

Menu
00:00:00.000                             : en:00:00:00.000
00:14:29.952                             : en:00:14:29.952
00:23:59.897                             : en:00:23:59.897
00:34:26.606                             : en:00:34:26.606
00:40:37.226                             : en:00:40:37.226
00:47:02.278                             : en:00:47:02.278
00:56:04.403                             : en:00:56:04.403
01:03:25.135                             : en:01:03:25.135
01:11:02.467                             : en:01:11:02.467
01:21:46.902                             : en:01:21:46.902
01:27:16.690                             : en:01:27:16.690
01:34:43.553                             : en:01:34:43.553


           
Category:Movies > 720P Bluray
Lang:English  English
Total Size:1,010.93 MB

:download:

|| Download This Movie Via Single Resumable Links Size: 1011 MB ||

Direct-1 Google Drive | Direct-2 | Direct-3 |

Watch Online Click Here

No comments:

Post a Comment