Crazy World Only 4 You

Sorry For The Inconvenience. If You are facing link dead or no google drive file access then inform us via comment

Latest Updates

Friday, 22 December 2017

Kingsman The Golden Circle (2017) Bluray 720p x264 Dual Audio [Hindi 5.0 Untouched + Eng 2.0] - Msub ~ Ranvijay


Poster


iMDB
Imdb Picture Title: Kingsman: The Golden Circle
Year: 2017
Runtime: 141 minutes
Votes: 58373
Rating: 7.2/10
Language: English, Italian, Swedish
Country: UK, USA
All Genres: Action, Adventure, Comedy
Plot Outline: When their headquarters are destroyed and the world is held hostage, the Kingsman's journey leads them to the discovery of an allied spy organization in the US. These two elite secret organizations must band together to defeat a common enemy.
Tagline: Reports of my death have been greatly exaggerated.
Director: Matthew Vaughn
Writing By: Jane Goldman,Matthew Vaughn,Mark Millar,Dave Gibbons,
Produced By: Adam Bohling,Dave Gibbons,Pierre Lagrange,Stephen Marks,Mark Millar,David Reid,Claudia Schiffer,Matthew Vaughn,
Music: Henry Jackman Matthew Margeson
Cast:
Taron Egerton as Eggsy
Edward Holcroft as Charlie
Gordon Alexander as Kingsman Cab Driver
Mark Strong as Merlin
Hanna AlstrΓΆm as Princess Tilde
Calvin Demba as Brandon
Thomas Turgoose as Liam
Tobi Bakare as Jamal
Julianne Moore as Poppy
Keith Allen as Charles
Trailers:
Trailer #2
Trailer #1
Kingsman: The Golden Circle



Details
Name:Kingsman The Golden Circle (2017) Bluray 720p x264 Dual Audio [Hindi 5.0 Untouched + Eng 2.0] -...
Description:
Kingsman The Golden Circle (2017) Bluray 720p x264 Dual Audio [Hindi 5.0 Untouched + Eng 2.0] - Msub ~ Ranvijay



 


Thanks To Mr Rajput For Hindi Audio



Format :                               Matroska
Format version :                       Version 4 / Version 2
File size :                            1.77 GiB
Duration :                             2 h 21 min
Overall bit rate :                     1 798 kb/s
Movie name :                           Kingsman The Golden Circle 2017 720p Bluray x264 Dual Audio [Hindi 5.0 Untouched + Eng 2.0] - Msub ~ Ranvijay

Video
ID :                                   1
Format :                               AVC
Duration :                             2 h 21 min
Bit rate :                             1 229 kb/s
Width :                                1 280 pixels
Height :                               536 pixels
Display aspect ratio :                 2.40:1
Frame rate mode :                      Constant
Frame rate :                           23.976 (24000/1001) FPS
Stream size :                          1.21 GiB (68%)
Title :                                ~Ranvijay~
Default :                              Yes
Forced :                               No

Audio #1
ID :                                   2
Format :                               AC-3
Format/Info :                          Audio Coding 3
Codec ID :                             A_AC3
Duration :                             2 h 21 min
Bit rate mode :                        Constant
Bit rate :                             448 kb/s
Channel(s) :                           6 channels
Channel positions :                    Front: L C R, Side: L R, LFE
Sampling rate :                        48.0 kHz
Frame rate :                           31.250 FPS (1536 SPF)
Bit depth :                            16 bits
Compression mode :                     Lossy
Stream size :                          452 MiB (25%)
Title :                                ~Ranvijay~
Language :                             Hindi
Service kind :                         Complete Main
Default :                              Yes
Forced :                               No

Audio #2
ID :                                   3
Format :                               AAC
Format/Info :                          Advanced Audio Codec
Format profile :                       HE-AAC / LC
Format settings :                      Explicit
Codec ID :                             A_AAC-2
Duration :                             2 h 21 min
Bit rate :                             100.0 kb/s
Channel(s) :                           2 channels
Channel positions :                    Front: L R
Sampling rate :                        48.0 kHz / 24.0 kHz
Frame rate :                           23.438 FPS (1024 SPF)
Compression mode :                     Lossy
Delay relative to video :              31 ms
Stream size :                          101 MiB (6%)
Title :                                ~Ranvijay~
Language :                             English
Default :                              No
Forced :                               No

Text #1
ID :
                                  4
Format :                               PGS
Muxing mode :                          zlib
Codec ID :                             S_HDMV/PGS
Codec ID/Info :                        Picture based subtitle format used on BDs/HD-DVDs
Duration :                             2 h 19 min
Bit rate :                             27.2 kb/s
Count of elements :                    3410
Stream size :                          27.1 MiB (1%)
Title :                                ~Ranvijay~
Language :                             Hindi
Default :                              Yes
Forced :                               No

Text #2
ID :                                   5
Format :                               PGS
Muxing mode :                          zlib
Codec ID :                             S_HDMV/PGS
Codec ID/Info :                        Picture based subtitle format used on BDs/HD-DVDs
Duration :                             2 h 13 min
Bit rate :                             34.1 kb/s
Count of elements :                    3338
Stream size :                          32.5 MiB (2%)
Title :                                ~Ranvijay~
Language :                             English
Default :                              No
Forced :                               No


                               

Kingsman: The Golden Circle (2017) πŸ‘Š
Hindi DD 5.1ChπŸ”ˆπŸ”ˆ Untouched OWN  πŸ’ͺ BluRay Audio
Where ever you share give a proper credit MrRajput 😎😎😎
Runtime BD 2:21:02
AC3, Hindi, 5.1 channels, 448kbps, 48kHz ~ MrRajput
 https://mega.nz/#!BWgmXZ5T!Gvq...XQQhcFrYC7cEuJ0ivHYM
 https://drive.google.com/file/...pbjoyxnsd4FG8Oh/view
AC3, Tamil, 5.1 channels, 448kbps, 48kHz ~ MrRajput
 https://drive.google.com/open?...ODLLfMfVV7F1X1w7eXHk
AC3, Telugu, 5.1 channels, 448kbps, 48kHz ~ MrRajput
 https://drive.google.com/open?...BK1sD2WQ-cxrynz3SBCI

Hindi SUB
 https://mega.nz/#!NeIU2RQT!dwD...bJSbzxLARlqmPy4W11Go
Eng SUB
 https://mega.nz/#!cOoizBzR!SMB...Wwh2sVaUnOUeQUclwtr4
Tamil SUB
 https://mega.nz/#!UHgFDRSD!a4Y...7RW3mnC3fEt39a2j1OVk
Telugu SUB
 https://mega.nz/#!haRUhCQB!NSs...X02ywt0
Category:Movies > Hollywood Dub
Lang:Hindi
Total Size:1.77 GB

:download:

|| Download This Movie Via Single Resumable Links Size: 1.77 GB ||

Direct-1 Google Drive | Direct-2 | Direct-3 |

Watch Online Click Here

No comments:

Post a Comment