Crazy World Only 4 You

Sorry For The Inconvenience. If You are facing link dead or no google drive file access then inform us via comment

Latest Updates

Friday, 1 December 2017

Legend of the Guardians The Owls of Ga'Hoole (2010) 1080p Bluray Dual Audio [Hin 2.0 + Eng 5.0] ~Ranvijay


Poster


iMDB
Imdb Picture Title: Legend of the Guardians: The Owls of Ga'Hoole
Year: 2010
Runtime: 97 minutes
Votes: 70105
Rating: 7.0/10
Language: English
Country: USA, Australia
All Genres: Animation, Action, Adventure, Family, Fantasy
Plot Outline: When a young owl is abducted by an evil Owl army, he must escape with new-found friends and seek the legendary Guardians to stop the menace.
Tagline: On his way to finding a legend...he will become one.
Director: Zack Snyder
Writing By: John Orloff,Emil Stern,Kathryn Lasky,
Produced By: Bruce Berman,Wesley Coller,Donald De Line,Christopher DeFaria,Imke Fehrmann,Kathryn Lasky,Zareh Nalbandian,Katrina Peers,Deborah Snyder,Lionel Wigram,
Music: David Hirschfelder
Cast:
Emily Barclay as Gylfie
Abbie Cornish as Otulissa
Essie Davis as Marella
Adrienne DeFaria as Eglantine
Joel Edgerton as Metal Beak
Deborra-Lee Furness as Barran
Sacha Horler as Strix Struma
Bill Hunter as Bubo
Ryan Kwanten as Kludd
Anthony LaPaglia as Twilight
Trailers:
Legend of the Guardians: The Owls of Ga'Hoole -- Trailer #2
Legend of the Guardians: Trailer #1
Legend Of The Guardians: The Owls Of Ga'Hoole


Details
Name:Legend of the Guardians The Owls of Ga'Hoole (2010) Bluray 1080p Dual Audio [Hin 2.0 + Eng 5.0]...
Description:
Legend of the Guardians The Owls of Ga'Hoole (2010) 1080p Bluray Dual Audio [Hin 2.0 + Eng 5.0] ~Ranvijay

 

Thanks To Rohit Sharma For Hindi Audio


Format                         : Matroska
Format version                 : Version 4 / Version 2
File size                      : 1.75 GiB
Duration                       : 1 h 36 min
Overall bit rate               : 2 590 kb/s
Movie name                     : Legend of the Guardians The Owls of Ga'Hoole (2010) 1080p Bluray Dual Audio [Hin 2.0 + Eng 5.0] ~Ranvijay

Video
ID                             : 1
Format                         : AVC
Duration                       : 1 h 32 min
Bit rate                       : 2 241 kb/s
Width                          : 1 920 pixels
Height                         : 1 080 pixels
Display aspect ratio           : 16:9
Frame rate mode                : Constant
Frame rate                     : 25.000 FPS
Original frame rate            : 23.976 (24000/1001) FPS
Stream size                    : 1.45 GiB (83%)
Title                          : ~Ranvijay~
Default                        : Yes
Forced                         : No

Audio #1
ID                             : 2
Format                         : AC-3
Format/Info                    : Audio Coding 3
Format settings, Endianness    : Big
Codec ID                       : A_AC3
Duration                       : 1 h 32 min
Bit rate mode                  : Constant
Bit rate                       : 224 kb/s
Channel(s)                     : 2 channels
Channel positions              : Front: L R
Sampling rate                  : 48.0 kHz
Frame rate                     : 31.250 FPS (1536 SPF)
Bit depth                      : 16 bits
Compression mode               : Lossy
Stream size                    : 149 MiB (8%)
Title                          : ~Ranvijay~
Language                       : Hindi
Service kind                   : Complete Main
Default                        : Yes
Forced                         : No

Audio #2
ID                             : 3
Format                         : AC-3
Format/Info                    : Audio Coding 3
Format settings, Endianness    : Big
Codec ID                       : A_AC3
Duration                       : 1 h 36 min
Bit rate mode                  : Constant
Bit rate                       : 224 kb/s
Channel(s)                     : 6 channels
Channel positions              : Front: L C R, Side: L R, LFE
Sampling rate                  : 48.0 kHz
Frame rate                     : 31.250 FPS (1536 SPF)
Bit depth                      : 16 bits
Compression mode               : Lossy
Stream size                    : 155 MiB (9%)
Title                          : ~Ranvijay~
Language                       : English
Service kind                   : Complete Main
Default                        : No
Forced                         : No

                       
Category:Movies > Hollywood Dub
Lang:Hindi
Total Size:1.75 GB

:download:

|| Download This Movie Via Single Resumable Links Size: 1.75 GB ||

Direct-1 Google Drive | Direct-2 | Direct-3 |

Watch Online Click Here

No comments:

Post a Comment