Marshall (2017) BRRip 720p x264 AAC - MkvCage


Poster


iMDB
Imdb Picture Title: Marshall
Year: 2017
Runtime: 118 minutes
Votes: 1203
Rating: 7.1/10
Language: English
Country: USA
All Genres: Biography, Drama
Plot Outline: About a young Thurgood Marshall, the first African-American Supreme Court Justice, as he battles through one of his career-defining cases.
Tagline: Live Hard. Fight Harder.
Director: Reginald Hudlin
Writing By: Jacob Koskoff,Michael Koskoff,
Produced By: Chris Bongirne,John Cappetta,Bradley Eisenstein,Lauren Friedman,Reginald Hudlin,Wang Jianchun,Dong Jun,Kevin Lamb,Beely Lee,Lei Luo,Lai Pan,Francis Power,Brandon Powers,David Ryan,Hunter Ryan,Jonathan Sanger,Lili Sun,Paula Wagner,Ellen S. Wander,Ben Ben Xu,Yan Xu,Jiali Zhang,
Music: Marcus Miller
Cast:
Chadwick Boseman as Thurgood Marshall
Josh Gad as Sam Friedman
Kate Hudson as Eleanor Strubing
Sterling K. Brown as Joseph Spell
Dan Stevens as Loren Willis
James Cromwell as Judge Foster
Keesha Sharp as Buster Marshall
Roger Guenveur Smith as Walter White
Derrick Baskin as Ted Lancaster
Barrett Doss as Bertha Lancaster
Trailers:
Trailer #2
Trailer #1


Details
Name:Marshall (2017) BRRip 720p x264 AAC - MkvCage
Description:
Marshall (2017) BRRip 720p x264 AAC - MkvCage

 



   Format                      : Matroska
   Format version              : Version 4 / Version 2
   File size                   : 1.05 GiB
   Duration                    : 1 h 58 min
   Overall bit rate            : 1 275 kb/s
   Movie name                  : Marshall.2017.720p.BRRip.1GB.MkvCage

   
   Video
   ID                          : 2
   Format                      : AVC
   Format/Info                 : Advanced Video Codec
   Format profile              : High@L4.1
   Format settings, CABAC      : Yes
   Format settings, RefFrames  : 9 frames
   Codec ID                    : V_MPEG4/ISO/AVC
   Duration                    : 1 h 58 min
   Bit rate                    : 1 174 kb/s
   Width                       : 1 280 pixels
   Height                      : 640 pixels
   Display aspect ratio        : 2.000
   Frame rate mode             : Constant
   Frame rate                  : 23.976 (24000/1001) FPS
   Color space                 : YUV
   Chroma subsampling          : 4:2:0
   Bit depth                   : 8 bits
   Scan type                   : Progressive
   Bits/(Pixel*Frame)          : 0.060
   Stream size                 : 994 MiB (92%)
   Default                     : Yes
   Forced                      : No
   
   Audio
   ID                          : 1
   Format                      : AAC
   Format/Info                 : Advanced Audio Codec
   Format profile              : HE-AAC / LC
   Codec ID                    : A_AAC
   Duration                    : 1 h 58 min
   Bit rate                    : 100.0 kb/s
   Channel(s)                  : 2 channels
   Channel positions           : Front: L R
   Sampling rate               : 48.0 kHz / 24.0 kHz
   Frame rate                  : 23.438 FPS (1024 SPF)
   Compression mode            : Lossy
   Delay relative to video     : 31 ms
   Stream size                 : 84.8 MiB (8%)
   Language                    : English
   Default                     : Yes
   Forced                      : No
   
   Text
   ID                          : 3
   Format                      : UTF-8
   Codec ID                    : S_TEXT/UTF8
   Codec ID/Info               : UTF-8 Plain Text
   Duration                    : 1 h 57 min
   Bit rate                    : 73 b/s
   Count of elements           : 1817
   Stream size                 : 62.8 KiB (0%)
   Language                    : English
   Default                     : Yes
   Forced                      : No
   
   Menu
   00:00:00.000                : en:00:00:00.000
   00:05:08.892                : en:00:05:08.892
   00:10:40.056                : en:00:10:40.056
   00:16:01.669                : en:00:16:01.669
   00:20:57.214                : en:00:20:57.214
   00:27:01.161                : en:00:27:01.161
   00:32:53.388                : en:00:32:53.388
   00:37:43.636                : en:00:37:43.636
   00:43:36.155                : en:00:43:36.155
   00:49:28.757                : en:00:49:28.757
   00:55:40.087                : en:00:55:40.087
   01:00:08.480                : en:01:00:08.480
   01:05:07.529                : en:01:05:07.529
   01:10:51.122                : en:01:10:51.122
   01:17:03.369                : en:01:17:03.369
   01:25:01.263                : en:01:25:01.263
   01:35:37.815                : en:01:35:37.815
   01:39:38.890                : en:01:39:38.890
   01:48:05.062                : en:01:48:05.062
   01:52:37.751                : en:01:52:37.751

 
Category:Movies > 720P Bluray
Lang:English  English
Total Size:1.05 GB

:download:

|| Download This Movie Via Single Resumable Links Size: 1.05 GB ||

Direct-1 Google Drive | Direct-2 | Direct-3 |

Watch Online Click Here

Post a Comment

0 Comments