STAY WITH US

header ads

Repo Men (2010) BluRay 720p Dual Audio [English + Hindi] x264 Esub


Poster


iMDB
Imdb Picture Title: Repo Men
Year: 2010
Runtime: 111 minutes
Votes: 91357
Rating: 6.3/10
Language: English, Spanish
Country: USA, Canada
All Genres: Action, Crime, Sci-Fi, Thriller
Plot Outline: Set in the near future when artificial organs can be bought on credit, it revolves around a man who struggles to make the payments on a heart he has purchased. He must therefore go on the run before said ticker is repossessed.
Tagline: New Eye: $345.000
Director: Miguel Sapochnik
Writing By: Eric Garcia,Garrett Lerner,Eric Garcia,
Produced By: Andrew Z. Davis,Valerie Dean,Mike Drake,Jon Mone,Miguel Sapochnik,Scott Stuber,
Music: Marco Beltrami
Cast:
Jude Law as Remy
Forest Whitaker as Jake
Alice Braga as Beth
Liev Schreiber as Frank
Carice van Houten as Carol
Chandler Canterbury as Peter
Joe Pingue as Ray
Liza Lapira as Alva
Tiffany Espensen as Little Alva
Yvette Nicole Brown as Rhodesia
Trailers:
Repo Men: Trailer #1
Repo Men: International Green Band Trailer
Repo Men: International Red Band Trailer

Details
Name:Repo Men 2010 720p EX Esub BluRay Dual Audio English Hindi GOPISAHI
Description:


General
Format                         : Matroska
Format version                 : Version 4 / Version 2
File size                      : 867 MiB
Duration                       : 1 h 59 min
Overall bit rate               : 1 014 kb/s
Movie name                     : Repo Men 2010

Video
ID                             : 1
Format                         : AVC
Codec ID                       : V_MPEG4/ISO/AVC
Duration                       : 1 h 59 min
Bit rate                       : 830 kb/s
Width                          : 1 280 pixels
Height                         : 544 pixels
Display aspect ratio           : 2.35:1
Frame rate mode                : Constant
Frame rate                     : 23.976 FPS
Stream size                    : 714 MiB (82%)
Writing library                : x264 core 112

Audio #1
Format                         : AAC
Duration                       : 1 h 59 min
Bit rate                       : 87.3 kb/s
Channel(s)                     : 6 channels
Channel positions              : Front: L C R, Side: L R, LFE
Sampling rate                  : 44.1 kHz
Frame rate                     : 43.066 FPS (1024 SPF)
Compression mode               : Lossy
Stream size                    : 74.7 MiB (9%)
Language                       : English

Audio #2
ID                             : 4
Format                         : AAC
Duration                       : 1 h 54 min
Bit rate                       : 93.2 kb/s
Channel(s)                     : 2 channels
Channel positions              : Front: L R
Sampling rate                  : 48.0 kHz
Frame rate                     : 46.875 FPS (1024 SPF)
Stream size                    : 76.0 MiB (9%)
Language                       : Hindi

Text
ID                             : 3
Language                       : English



Category:Movies > Hollywood Dub
Lang:Hindi
Total Size:867.43 MB

:download:

|| Download This Movie Via Single Resumable Links Size: 867 MB ||

Direct-1 Google Drive | Direct-2 | Direct-3 |

Watch Online Click Here

Post a Comment

0 Comments