Schindler's List (1993) BluRay 720p Dual Audio [Hindi DD 5.0 - Eng 2.0] - Esub ~ Ranvijay


Poster


iMDB
Imdb Picture Title: Schindler's List
Year: 1993
Runtime: 195 minutes
Votes: 946715
Rating: 8.9/10
Language: English, Hebrew, German, Polish
Country: USA
All Genres: Biography, Drama, History
Plot Outline: In German-occupied Poland during World War II, Oskar Schindler gradually becomes concerned for his Jewish workforce after witnessing their persecution by the Nazi Germans.
Tagline: Whoever saves one life, saves the world entire.
Director: Steven Spielberg
Writing By: Thomas Keneally,Steven Zaillian,
Produced By: Irving Glovin,Kathleen Kennedy,Branko Lustig,Gerald R. Molen,Robert Raymond,Lew Rywin,Steven Spielberg,
Music: John Williams
Plot:
Oskar Schindler is a vainglorious and greedy German businessman who becomes an unlikely humanitarian amid the barbaric German Nazi reign when he feels compelled to turn his factory into a refuge for Jews. Based on the true story of Oskar Schindler who managed to save about 1100 Jews from being gassed at the Auschwitz concentration camp, it is a testament to the good in all of us.
- Written by Harald Mayr <marvin@bike.augusta.de>
The incredible true story of the enigmatic and opportunistic businessman Oskar Schindler, who saved the lives of more than 1,100 Jews during the Holocaust. Schindler's List chronicles the trials and triumph of one man who made a difference and the tribulations of those who survived one of the darkest chapters in human history because of his actions.
- Written by Spiricom
Businessman Oskar Schindler arrives in Krakow in 1939, ready to make his fortune from World War II, which has just started. After joining the Nazi party primarily for political expediency, he staffs his factory with Jewish workers for similarly pragmatic reasons. When the SS begins exterminating Jews in the Krakow ghetto, Schindler arranges to have his workers protected to keep his factory in operation, but soon realizes that in so doing, he is also saving innocent lives.
- Written by Jwelch5742
The true story of Czech born Oskar Schindler, a businessman who tried to make his fortune during the Second World War by exploiting cheap Jewish labour, but ended up penniless having saved over 1000 Polish Jews from almost certain death during the Holocaust.
- Written by Rob Hartill
"Schindler's List" is the based-on-truth story of Nazi Czech business man Oskar Schindler, who uses Jewish labor to start a factory in occupied Poland. As World War II progresses, and the fate of the Jews becomes more and more clear, Schindler's motivations switch from profit to human sympathy and he is able to save over 1100 Jews from death in the gas chambers.
- Written by Anthony Hughes <husnock31@hotmail.com>
In German-occupied Poland during World War II, Oskar Schindler gradually becomes concerned for his Jewish workforce after witnessing their persecution by the Nazi Germans.
- Written by Chris White
Cast:
Liam Neeson as Oskar Schindler
Ben Kingsley as Itzhak Stern
Ralph Fiennes as Amon Goeth
Caroline Goodall as Emilie Schindler
Jonathan Sagall as Poldek Pfefferberg
Embeth Davidtz as Helen Hirsch
Malgorzata Gebel as Wiktoria Klonowska
Shmuel Levy as Wilek Chilowicz
Mark Ivanir as Marcel Goldberg
BĂ©atrice Macola as Ingrid



Name:Schindler's List (1993) BluRay 720p Dual Audio [Hindi DD 5.0 - Eng 2.0] - Esub ~ Ranvijay
Description:
Schindler's List (1993) BluRay 720p Dual Audio [Hindi DD 5.0 - Eng 2.0] - Esub ~ Ranvijay

 

Format                                   : Matroska
Format version                           : Version 4 / Version 2
File size                                : 1.55 GiB
Duration                                 : 3 h 15 min
Overall bit rate                         : 1 139 kb/s
Movie name                               : Schindler's List (1993) 720 BluRay Dual Audio [Hindi DD 5.0 - Eng 2.0] - Esub ~ Ranvijay

Video
ID                                       : 1
Format                                   : AVC
Duration                                 : 3 h 15 min
Bit rate                                 : 788 kb/s
Width                                    : 1 280 pixels
Height                                   : 688 pixels
Display aspect ratio                     : 1.85:1
Frame rate mode                          : Constant
Frame rate                               : 23.976 (24000/1001) FPS
Color space                              : YUV
Chroma subsampling                       : 4:2:0
Stream size                              : 1.07 GiB (69%)
Title                                    : ~Ranvijay~
Default                                  : Yes
Forced                                   : No

Audio #1
ID                                       : 2
Format                                   : AC-3
Format/Info                              : Audio Coding 3
Codec ID                                 : A_AC3
Duration                                 : 3 h 15 min
Bit rate mode                            : Constant
Bit rate                                 : 224 kb/s
Channel(s)                               : 6 channels
Channel positions                        : Front: L C R, Side: L R, LFE
Sampling rate                            : 48.0 kHz
Frame rate                               : 31.250 FPS (1536 SPF)
Bit depth                                : 16 bits
Compression mode                         : Lossy
Stream size                              : 313 MiB (20%)
Title                                    : ~Ranvijay~
Language                                 : Hindi
Service kind                             : Complete Main
Default                                  : Yes
Forced                                   : No

Audio #2
ID                                       : 3
Format                                   : AAC
Format/Info                              : Advanced Audio Codec
Format profile                           : LC
Codec ID                                 : A_AAC-2
Duration                                 : 3 h 15 min
Bit rate                                 : 128 kb/s
Channel(s)                               : 2 channels
Channel positions                        : Front: L R
Sampling rate                            : 48.0 kHz
Frame rate                               : 46.875 FPS (1024 SPF)
Compression mode                         : Lossy
Stream size                              : 179 MiB (11%)
Title                                    : ~Ranvijay~
Language                                 : English
Default                                  : No
Forced                                   : No

Text
ID                                       : 4
Format                                   : UTF-8
Codec ID                                 : S_TEXT/UTF8
Codec ID/Info                            : UTF-8 Plain Text
Duration                                 : 3 h 4 min
Bit rate                                 : 57 b/s
Count of elements                        : 2420
Stream size                              : 78.2 KiB (0%)
Title                                    : ~Ranvijay~
Language                                 : English
Default                                  : Yes
Forced                                   : No


       
Category:Movies > Hollywood Dub
Lang:Hindi
Total Size:1.55 GB

:download:

|| Download This Movie Via Single Resumable Links Size: 1.39 GB ||

Direct-1 Google Drive | Direct-2 | Direct-3 |

Watch Online Click Here

Post a Comment

1 Comments

  1. Thank you very much. Great movie and and great upload. Thank you for dual audio. Keep it up...

    ReplyDelete