Crazy World Only 4 You

Sorry For The Inconvenience. If You are facing link dead or no google drive file access then inform us via comment

LightBlog

Latest Updates

Wednesday, 6 December 2017

The Debt (2010) BluRay 720p Dual Audio [English + Hindi] x264 Esub


Poster


iMDB
Imdb Picture Title: The Debt
Year: 2010
Runtime: 113 minutes
Votes: 57724
Rating: 6.9/10
Language: English, German, Russian
Country: USA, UK, Hungary, Israel
All Genres: Drama, Thriller
Plot Outline: In 1965, three Mossad agents cross into East Berlin to apprehend a notorious Nazi war criminal. Thirty years later, the secrets the agents share come back to haunt them.
Tagline: Every secret comes with a price
Director: John Madden
Writing By: Matthew Vaughn,Jane Goldman,Peter Straughan,Assaf Bernstein,Ido Rosenblum,
Produced By: Mairi Bett,Eitan Evan,Tarquin Pack,Eduardo Rossoff,Kris Thykier,Matthew Vaughn,
Music: Thomas Newman
Plot:
The espionage thriller begins in 1997, as shocking news reaches retired Mossad secret agents Rachel (Helen Mirren) and Stefan (Tom Wilkinson) about their former colleague David (Ciarán Hinds). All three have been venerated for decades by their country because of the mission that they undertook back in 1965, when the trio (portrayed, respectively, by Jessica Chastain, Marton Csokas, and Sam Worthington) tracked down Nazi war criminal Vogel (Jesper Christensen) in East Berlin. At great risk, and at considerable personal cost, the team's mission was accomplished - or was it? The suspense builds in and across two different time periods, with startling action and surprising revelations.
- Written by Focus Features
In 1965, Mossad agents Rachel, Stephan and David are assigned to kidnap Nazi Dieter Vogel, a.k.a. The Surgeon of Birkenau, in East Berlin. They succeed in the abduction but fail in bringing him to the west side. While staying with him in an apartment building, Vogel escapes but the trio of young agents lies to their government and tells that Rachel killed Vogel while he was running away. They have been honored in their country by their action for more than thirty years. In 1997, Rachel's daughter Sarah Gold releases a book in Tel Aviv about the mission of her mother and the two other agents. Rachel Singer, Sarah's father Stephan Gold, who is paralytic in a wheelchair, and David Peretz, who is missing, are retired and Rachel is uncomfortable with the lie that they have been living with. Out of the blue, David appears in Tel Aviv and commits suicide. Stephan investigates and finds that Dieter Vogel is apparently alive in a hospital in Kiev, Ukraine, and will be interviewed by a journalist. Now Rachel has to travel to Kiev to conclude what they should have done thirty years ago.
- Written by Claudio Carvalho, Rio de Janeiro, Brazil
In 1965, three Mossad agents cross into East Berlin to apprehend a notorious Nazi war criminal. Thirty years later, the secrets the agents share come back to haunt them.
- Written by L. Hamre
Cast:
Helen Mirren as Rachel Singer
Tom Wilkinson as Stephan Gold
Ciarán Hinds as David Peretz
Romi Aboulafia as Sarah Gold
Tomer Ben David as Sarah's Husband
Ohev Ben David as Sarah's Son
Jonathan Uziel as Mossad Agent
Elana Kivity Davenport as Publisher
Eli Zohar as Stephan's Driver
Irén Bordán as Seminar Moderator (Tel Aviv 1997)
Trailers:
The Debt


Details
Name:The Debt 2010 720p Esub BluRay Dual Audio English Hindi GOPISAHI
Description:

General
Complete name                  : The Debt 2010 720p Esub BluRay Dual Audio English Hindi GOPISAHI
Format                         : Matroska
Format version                 : Version 4 / Version 2
File size                      : 743 MiB
Duration                       : 1 h 43 min
Overall bit rate               : 1 002 kb/s
Movie name                     : The Debt 2010
Encoded date                   : UTC 2017-08-27 03:48:12

Video
Format                         : AVC
Duration                       : 1 h 43 min
Bit rate                       : 875 kb/s
Nominal bit rate               : 823 kb/s
Width                          : 1 280 pixels
Height                         : 536 pixels
Display aspect ratio           : 2.40:1
Frame rate mode                : Constant
Frame rate                     : 25.000 FPS
Original frame rate            : 23.976 (24000/1001) FPS
Stream size                    : 648 MiB (87%)
Writing library                : x264 core

Audio #1
ID                             : 2
Format                         : AAC
Duration                       : 1 h 43 min
Bit rate                       : 87.4 kb/s
Channel(s)                     : 6 channels
Channel positions              : Front: L C R, Side: L R, LFE
Sampling rate                  : 44.1 kHz
Frame rate                     : 43.066 FPS (1024 SPF)
Stream size                    : 64.8 MiB (9%)
Title                          : GOPISAHI

Audio #2
Format                         : AAC
Duration                       : 1 h 43 min
Bit rate                       : 37.5 kb/s
Channel(s)                     : 2 channels
Channel positions              : Front: L R
Sampling rate                  : 48.0 kHz / 24.0 kHz
Frame rate                     : 23.438 FPS (1024 SPF)
Stream size                    : 27.8 MiB (4%)
Language                       : English

Text
Language                       : English



Category:Movies > Hollywood Dub
Lang:Hindi
Total Size:742.55 MB

:download:

|| Download This Movie Via Single Resumable Links Size: 743 MB ||

Direct-1 Google Drive | Direct-2 | Direct-3 |

Watch Online Click Here

No comments:

Post a Comment