The Girlfriend Experience S02 Complete 720p WEB-HDRip Dual Audio [Hindi + English] Esub


Poster


iMDB
Imdb Picture Title: The Girlfriend Experience
Year: 2016
Runtime: 27 minutes
Votes: 6219
Rating: 7.3/10
Language: English
Country: USA
All Genres: Drama
Plot Outline: Anthology TV series based on Steven Soderbergh's "The Girlfriend Experience".
Tagline: It's personal.
Director: Lodge Kerrigan
Amy Seimetz
Writing By: Lodge Kerrigan,Amy Seimetz,Brian Koppelman,David Levien,
Produced By: Philip Fleishman,Lodge Kerrigan,Amy Seimetz,Steven Soderbergh,Jeff Cuban,David Gendron,Ali Jazayeri,Suzanne Colvin,David Kirchner,Gary Marcus,Kristina Boden,Andrew Fierberg,Martina Klich,Adele Romanski,Andrew Stanley,
Music: Shane Carruth Mondo Boys
Cast:
Riley Keough as Christine Reade 13 episodes, 2016
Paul Sparks as David Tellis 12 episodes, 2016
Mary Lynn Rajskub as Erin Roberts 10 episodes, 2016
Briony Glassco as Susan King 10 episodes, 2016
Sabryn Rock as Kayla Boden 9 episodes, 2016
Bill Lake as Carson Lewis 9 episodes, 2016
Anna Friel as Erica Myles 9 episodes, 2017
Carmen Ejogo as Bria Jones 9 episodes, 2017
Louisa Krause as Anna Greenwald 9 episodes, 2017
Aidan Devine as Martin Bayley 8 episodes, 2016

Details
Name:18+ The Girlfriend Experience S02 E01-05 720p WEB-HDRip Dual Audio [Hindi + English] HEVC x265
Description:
18+ The Girlfriend Experience S02 E01-05 720p WEB-HDRip Dual Audio [Hindi + English] HEVC x265

 

:::- PLOT -:::

Inspired by Steven Soderbergh's same-named 2009 film, Starz's "The Girlfriend Experience" further develops the original premise of a young attorney in training who leads a double life as a high-end escort. These girlfriends, however, provide far more to their clients than just sex. Season 2 introduces new characters and follows parallel storylines, the first about a former call girl, Bria Jones, who enters the Witness Protection Program to escape an abusive relationship. In the second story, a complex relationship between political fundraiser Erica Myles and confident escort Anna Garner affects every aspect of Erica's life and allows Anna to experience new emotional heights.

Video
ID                                       : 1
Format                                   : HEVC
Format/Info                              : High Efficiency Video Coding
Format profile                           : Main@L3.1@Main
Codec ID                                 : V_MPEGH/ISO/HEVC
Duration                                 : 25 min 15 s
Bit rate                                 : 407 kb/s
Width                                    : 1 280 pixels
Height                                   : 720 pixels
Display aspect ratio                     : 16:9
Frame rate mode                          : Constant
Frame rate                               : 23.976 (24000/1001) FPS
Color space                              : YUV
Chroma subsampling                       : 4:2:0
Bit depth                                : 8 bits
Bits/(Pixel*Frame)                       : 0.018
Stream size                              : 73.5 MiB (67%)
Default                                  : Yes
Forced                                   : No

Audio #1
ID                                       : 2
Format                                   : MPEG Audio
Format version                           : Version 1
Format profile                           : Layer 3
Codec ID                                 : A_MPEG/L3
Codec ID/Hint                            : MP3
Duration                                 : 25 min 15 s
Bit rate mode                            : Variable
Bit rate                                 : 128 kb/s
Channel(s)                               : 2 channels
Sampling rate                            : 44.1 kHz
Frame rate                               : 38.281 FPS (1152 SPF)
Compression mode                         : Lossy
Stream size                              : 23.1 MiB (21%)
Language                                 : Hindi
Default                                  : Yes
Forced                                   : Yes

Audio #2
ID                                       : 3
Format                                   : AAC
Format/Info                              : Advanced Audio Codec
Format profile                           : HE-AAC / LC
Format settings                          : Explicit
Codec ID                                 : A_AAC-2
Duration                                 : 25 min 15 s
Bit rate                                 : 66.2 kb/s
Channel(s)                               : 2 channels
Channel positions                        : Front: L R
Sampling rate                            : 48.0 kHz / 24.0 kHz
Frame rate                               : 23.438 FPS (1024 SPF)
Compression mode                         : Lossy
Delay relative to video                  : 23 ms
Stream size                              : 11.9 MiB (11%)
Default                                  : No
Forced                                   : No

Text #1
ID                                       : 4
Stream size                              : 12.7 KiB (0%)
Title                                    : English


18+ ScreenShots

                   
Category:TV > WEB-HD
Lang:Hindi
Total Size:2.23 GB

:download:

|| Download This Tv Show Via Single Resumable Links Size: 2.23 GB ||

Direct-1 Google Drive |

Post a Comment

0 Comments