Crazy World Only 4 You

Sorry For The Inconvenience. If You are facing link dead or no google drive file access then inform us via comment

Latest Updates

Friday, 29 December 2017

The Missing Lynx (2008) BluRay 720p x264 Dual Audio [English + Hindi] Esub


Poster


iMDB
Imdb Picture Original Title: El lince perdido
Title: Félix & Cie
Year: 2008
Runtime: 97 minutes
Votes: 917
Rating: 5.6/10
Language: English
Country: Spain
All Genres: Animation, Action, Adventure, Comedy, Family
Plot Outline: A group of animals look for a way off of an eccentric billionaire's own personal Noah's Ark.
Tagline: La extinción es el menor de sus problemas (The extinction is the least of their problems)
Director: Raul Garcia
Manuel Sicilia
Writing By: Manuel Sicilia,Raul Garcia,Jose E. Machuca,Valentín Fernández-Tubau,Pedro Angosto,Pepe Díaz,Raul Garcia,Stephen Hughes,Manuel Sicilia,
Produced By: Marcelino Almansa,Rocio Ayuso,Antonio Banderas,Manuel Cristóbal,Javier Domínguez,Francisco Fortes,Raul Garcia,Antonio Meliveo,Juan Molina,Enrique Posner,Manuel Sicilia,
Music: Sergio de la Puente
Cast:
David Robles as Félix
Cecilia Santiago as Beeea
Conchi López as Astarté
Abraham Aguilar as Gus
Julio Núñez as Noé
Roberto Cuenca as Noé
Stephen Hughes as Newmann / Gus / Nurse 1 / Additional Voices
Carlos del Pino as Rupert
Pepa Castro as Doctora
Beatriz Berciano as Lincesa
Trailers:
Missing Lynx



Details
Name:The Missing Lynx 2008 720p Esub BluRay Dual Audio English Hindi GOPISAHI
Description:

Format                         : Matroska
Format version                 : Version 4 / Version 2
File size                      : 789 MiB
Duration                       : 1 h 41 min
Overall bit rate               : 1 089 kb/s
Movie name                     : The Missing Lynx 2008

Video
Format                         : AVC
Format/Info                    : Advanced Video Codec
Codec ID                       : V_MPEG4/ISO/AVC
Duration                       : 1 h 41 min
Bit rate                       : 900 kb/s
Width                          : 1 272 pixels
Height                         : 688 pixels
Display aspect ratio           : 1.85:1
Frame rate mode                : Constant
Frame rate                     : 23.976 (24000/1001) FP
Stream size                    : 652 MiB (83%)
Writing library                : x264

Audio #1
Format                         : AAC
Duration                       : 1 h 41 min
Bit rate                       : 89.7 kb/s
Channel(s)                     : 6 channels
Channel positions              : Front: L C R, Side: L R, LFE
Sampling rate                  : 44.1 kHz
Frame rate                     : 43.066 FPS (1024 SPF)
Stream size                    : 65.0 MiB (8%)
Language                       : English

Audio #2
Format                         : AAC
Duration                       : 1 h 41 min
Bit rate                       : 96.0 kb/s
Channel(s)                     : 6 channels
Channel positions              : Front: L C R, Side: L R, LFE
Sampling rate                  : 44.1 kHz
Frame rate                     : 43.066 FPS (1024 SPF)
Stream size                    : 70.3 MiB (9%)
Language                       : Hindi

Text
Language                       : English


Category:Movies > Hollywood Dub
Lang:Hindi
Total Size:788.95 MB

:download:

|| Download This Movie Via Single Resumable Links Size: 789 MB ||

Direct-1 Google Drive | Direct-2 | Direct-3 |

Watch Online Click Here

No comments:

Post a Comment