Crazy World Only 4 You

Sorry For The Inconvenience. If You are facing link dead or no google drive file access then inform us via comment

Latest Updates

Wednesday, 13 December 2017

The Mountain Between Us (2017) BRRip 720p x264 Dual Audio [Hindi+Eng] DD 5.1 - Msubs ~ Ranvijay


Poster


iMDB
Imdb Picture Title: The Mountain Between Us
Year: 2017
Runtime: 112 minutes
Votes: 6581
Rating: 6.3/10
Language: English
Country: USA
All Genres: Action, Adventure, Drama, Romance, Thriller
Plot Outline: Stranded after a tragic plane crash, two strangers must forge a connection to survive the extreme elements of a remote snow-covered mountain. When they realize help is not coming, they embark on a perilous journey across the wilderness.
Tagline: What if your life depended on a stranger?
Director: Hany Abu-Assad
Writing By: J. Mills Goodloe,Charles Martin,Chris Weitz,
Produced By: Fred Berger,Peter Chernin,Dylan Clark,Becki Cross Trujillo,Amira Diab,David Ready,Jenno Topping,
Music: Ramin Djawadi
Cast:
Idris Elba as Ben Bass
Kate Winslet as Alex Martin
Beau Bridges as Walter
Dermot Mulroney as Mark
Linda Sorensen as Pamela
Vincent Gale as Airline Customer Service
Marci T. House as Airline Rep
Dania Nassar as Female Patient (Mrs. Qabbani)
Lee Majdoub as Translator
Andres Joseph as Dinner Guest
Trailers:
Official Trailer


Details
Name:The Mountain Between Us (2017) BRRip 720p x264 Dual Audio [Hindi 5.0 + Eng 2.0] - Msubs ~ Ranvi...
Description:
The Mountain Between Us (2017) BRRip 720p x264 Dual Audio [Hindi 5.0 + Eng 2.0] - Msubs ~ Ranvijay

 



Thanks To Mr Rajput For Hindi Audio


Format                                   : Matroska
Format version                           : Version 4 / Version 2
File size                                : 1.13 GiB
Duration                                 : 1 h 51 min
Overall bit rate                         : 1 443 kb/s
Movie name                               : The Mountain Between Us 2017 720p BluRay x264 Dual Audio [Hindi+Eng] DD 5.0 - Msubs ~ Ranvijay

Video
ID                                       : 1
Format                                   : AVC
Duration                                 : 1 h 51 min
Bit rate                                 : 1 020 kb/s
Width                                    : 1 280 pixels
Height                                   : 536 pixels
Display aspect ratio                     : 2.40:1
Frame rate mode                          : Constant
Frame rate                               : 23.976 (24000/1001) FPS
Stream size                              : 788 MiB (68%)
Title                                    : ~Ranvijay~
Default                                  : Yes
Forced                                   : No

Audio #1
ID                                       : 2
Format                                   : AC-3
Format/Info                              : Audio Coding 3
Codec ID                                 : A_AC3
Duration                                 : 1 h 51 min
Bit rate mode                            : Constant
Bit rate                                 : 224 kb/s
Channel(s)                               : 6 channels
Channel positions                        : Front: L C R, Side: L R, LFE
Sampling rate                            : 48.0 kHz
Frame rate                               : 31.250 FPS (1536 SPF)
Bit depth                                : 16 bits
Compression mode                         : Lossy
Stream size                              : 179 MiB (16%)
Title                                    : ~Ranvijay~
Language                                 : Hindi
Service kind                             : Complete Main
Default                                  : Yes
Forced                                   : No

Audio #2
ID                                       : 3
Format                                   : AC-3
Format/Info                              : Audio Coding 3
Codec ID                                 : A_AC3
Duration                                 : 1 h 51 min
Bit rate mode                            : Constant
Bit rate                                 : 224 kb/s
Channel(s)                               : 6 channels
Channel positions                        : Front: L C R, Side: L R, LFE
Sampling rate                            : 48.0 kHz
Frame rate                               : 31.250 FPS (1536 SPF)
Bit depth                                : 16 bits
Compression mode                         : Lossy
Stream size                              : 179 MiB (16%)
Title                                    : ~Ranvijay~
Language                                 : English
Service kind                             : Complete Main
Default                                  : No
Forced                                   : No

Text
ID                                       : 4
Format                                   : PGS
Muxing mode                              : zlib
Codec ID                                 : S_HDMV/PGS
Codec ID/Info                            : Picture based subtitle format used on BDs/HD-DVDs
Duration                                 : 1 h 51 min
Bit rate                                 : 18.5 kb/s
Count of elements                        : 1966
Stream size                              : 14.7 MiB (1%)
Title                                    : ~Ranvijay~
Language                                 : Hindi
Default                                  : Yes
Forced                                   : No


                   
Category:Movies > Hollywood Dub
Lang:Hindi
Total Size:1.13 GB

:download:

|| Download This Movie Via Single Resumable Links Size: 1.13 GB ||

Direct-1 Google Drive | Direct-2 | Direct-3 |

Watch Online Click Here

No comments:

Post a Comment