STAY WITH US

header ads

Tubelight (2017) Hindi DvDRip 720p x264 Esub


Poster


iMDB
Imdb Picture Title: Tubelight
Year: 2017
Runtime: 154 minutes
Votes: 985
Rating: 5.7/10
Language: Hindi
Country: India
All Genres: Adventure, Drama, War
Plot Outline: Tubelight is the story of a man's unshakable faith in himself and the love for his family.
Director: Kabir Khan
Writing By: Kabir Khan,Parveez Sheikh,Manurishi Chadha,
Produced By: Amar Butala,Rajan Kapoor,Salma Khan,Salman Khan,Garima Mehta,
Music: Julius Packiam
Plot:
In a small picturesque town in North India, Laxman (Salman Khan) lives with his younger brother Bharat (Sohail Khan). The two have no other family and are inseparable. Laxman's world comes crashing down, when war breaks out and Bharat gets drafted into the Army. A helpless Bharat leaves a devastated Laxman behind. News from the border only worsens, as the tension continues to escalate. Seeing the carnage around him and worried for his brother, Laxman decides he must stop this conflict and get his brother back.
Tubelight is the story of a man's unshakable faith in himself and the love for his family.

Cast:
Salman Khan as Laxman
Sohail Khan as Bharat
Om Puri as Banne Chacha
Mohammed Zeeshan Ayyub as Narayan
Yashpal Sharma as Major Rajbir Tokas
Zhu Zhu as Liling
Matin Rey Tangu as Guo
Brijendra Kala as Shoe Shopkeeper
Isha Talwar as Maya
Jason D'Souza as Little Laxman (6)
Trailers:
Tubelight Official Trailer
Tubelight Teaser Trailer



Details
Name:Tubelight 2017 720p Esub DVD Hindi GOPISAHI
Description:

Format                         : Matroska
Format version                 : Version 4 / Version 2
File size                      : 916 MiB
Duration                       : 2 h 16 min
Overall bit rate               : 941 kb/s
Movie name                     : Tubelight 2017 GOPISAHI

Video
Format                         : AVC
Codec ID                       : V_MPEG4/ISO/AVC
Duration                       : 2 h 16 min
Bit rate                       : 850 kb/s
Width                          : 1 280 pixels
Height                         : 544 pixels
Display aspect ratio           : 2.35:1
Frame rate mode                : Constant
Frame rate                     : 23.976 (24000/1001) FPS
Stream size                    : 828 MiB (90%)
Writing library                : x264 core 152 r2851 ba24899

Audio
Format                         : AAC
Duration                       : 2 h 16 min
Bit rate                       : 88.7 kb/s
Channel(s)                     : 6 channels
Channel positions              : Front: L C R, Side: L R, LFE
Sampling rate                  : 44.1 kHz
Frame rate                     : 43.066 FPS (1024 SPF)
Stream size                    : 86.4 MiB (9%)
Language                       : Hindi


Text\
Language                       : English


Category:Movies > Bollywood
Lang:Hindi
Total Size:916.19 MB

:download:

|| Download This Movie Via Single Resumable Links Size: 916 MB ||

Direct-1 Google Drive | Direct-2 | Direct-3 |

Watch Online Click Here

Post a Comment

0 Comments