Crazy World Only 4 You

Sorry For The Inconvenience. If You are facing link dead or no google drive file access then inform us via comment

Latest Updates

Sunday, 17 December 2017

U 571 (2000) BluRay 720p Dual Audio [English + Hindi] x264 Esub


Poster


iMDB
Imdb Picture Title: U-571
Year: 2000
Runtime: 116 minutes
Votes: 69111
Rating: 6.6/10
Language: English, German
Country: France, USA
All Genres: Action, War
Plot Outline: A German submarine is boarded by disguised American submariners trying to capture their Enigma cipher machine.
Tagline: You won't come up for air until it's over!
Director: Jonathan Mostow
Writing By: Jonathan Mostow,Jonathan Mostow,Sam Montgomery,David Ayer,
Produced By: Alan Collis,Dino De Laurentiis,Martha De Laurentiis,Hal Lieberman,Lucio Trentini,
Music: Richard Marvin
Cast:
Matthew McConaughey as Lt. Andrew Tyler
Bill Paxton as Lt. Cmdr. Mike Dahlgren
Harvey Keitel as CPO Henry Klough
Jon Bon Jovi as Lt. Pete Emmett
David Keith as Maj. Matthew Coonan
Thomas Kretschmann as Capt.-Lt. Gunther Wassner
Jake Weber as Lt. Hirsch
Jack Noseworthy as Seaman Bill Wentz
Tom Guiry as Seaman Ted 'Trigger' Fitzgerald
Will Estes as Seaman Ronald 'Rabbit' Parker
Trailers:
U-571


Details
Name:U 571 2000 720p Esub BluRay Dual Audio English Hindi GOPISAHI
Description:


---General---

Format                         : Matroska
Format version                 : Version 4 / Version 2
File size                      : 844 MiB
Duration                       : 1 h 56 min
Overall bit rate               : 1 015 kb/s
Movie name                     : U 571 2000 720p Esub BluRay Dual Audio English Hindi GOPISAHI.mkv

---Video---
ID                             : 1
Format                         : AVC
Format/Info                    : Advanced Video Codec
Format profile                 : High@L3.1
Format settings                : CABAC / 4 Ref Frames
Format settings, CABAC         : Yes
Format settings, RefFrames     : 4 frames
Codec ID                       : V_MPEG4/ISO/AVC
Duration                       : 1 h 56 min
Bit rate                       : 838 kb/s
Width                          : 1 280 pixels
Height                         : 544 pixels
Display aspect ratio           : 2.35:1
Frame rate mode                : Constant
Frame rate                     : 23.976 (24000/1001) FPS
Color space                    : YUV
Chroma subsampling             : 4:2:0
Bit depth                      : 8 bits
Scan type                      : Progressive
Bits/(Pixel*Frame)             : 0.050
Stream size                    : 697 MiB (83%)
Title                          : U 571 2000
Language                       : English
Default                        : Yes
Forced                         : No

---Audio #1---
ID                             : 3
Format                         : AAC
Format/Info                    : Advanced Audio Codec
Format profile                 : LC
Codec ID                       : A_AAC-2
Duration                       : 1 h 56 min
Bit rate                       : 85.4 kb/s
Channel(s)                     : 6 channels
Channel positions              : Front: L C R, Side: L R, LFE
Sampling rate                  : 44.1 kHz
Frame rate                     : 43.066 FPS (1024 SPF)
Compression mode               : Lossy
Stream size                    : 71.0 MiB (8%)
Title                          : U 571 2000
Language                       : English
Default                        : Yes
Forced                         : No

---Audio #2---
ID                             : 4
Format                         : AAC
Format/Info                    : Advanced Audio Codec
Format profile                 : LC
Codec ID                       : A_AAC-2
Duration                       : 1 h 56 min
Bit rate                       : 88.8 kb/s
Channel(s)                     : 6 channels
Channel positions              : Front: L C R, Side: L R, LFE
Sampling rate                  : 44.1 kHz
Frame rate                     : 43.066 FPS (1024 SPF)
Compression mode               : Lossy
Stream size                    : 73.8 MiB (9%)
Title                          : U 571 2000
Language                       : Hindi
Default                        : No
Forced                         : No

---Text---
ID                             : 2
Format                         : UTF-8
Codec ID                       : S_TEXT/UTF8
Codec ID/Info                  : UTF-8 Plain Text
Duration                       : 1 h 48 min
Bit rate                       : 48 b/s
Count of elements              : 981
Stream size                    : 38.2 KiB (0%)
Title                          : GOPI SAHI  @ PENDU DESI RELEASERS
Language                       : English
Default                        : Yes
Forced                         : No



Category:Movies > Hollywood Dub
Lang:Hindi
Total Size:844.08 MB

:download:

|| Download This Movie Via Single Resumable Links Size: 844 MB ||

Direct-1 Google Drive | Direct-2 | Direct-3 |

Watch Online Click Here

No comments:

Post a Comment