Underworld Blood Wars (2016) BluRay 720p x264 Dual Audio [Hindi - English] - Hon3y


Poster


iMDB
Imdb Picture Title: Underworld: Blood Wars
Year: 2016
Runtime: 91 minutes
Votes: 38874
Rating: 5.8/10
Language: English, Ukrainian, Khmer
Country: USA
All Genres: Action, Adventure, Fantasy
Plot Outline: Vampire death dealer, Selene (Kate Beckinsale) fights to end the eternal war between the Lycan clan and the Vampire faction that betrayed her.
Tagline: Protect the bloodline.
Director: Anna Foerster
Writing By: Cory Goodman,Kyle Ward,Cory Goodman,Kevin Grevioux,Len Wiseman,Danny McBride,
Produced By: David Kern,Gary Lucchesi,James McQuaide,David Minkowski,Eric Reid,Tom Rosenberg,Jackie Shenoo,Matthew Stillman,Ben Waisbren,Skip Williamson,Henry Winterstern,Len Wiseman,Richard S. Wright,
Music: Michael Wandmacher
Plot:
The next installment in the blockbuster franchise, UNDERWORLD: BLOOD WARS follows Vampire death dealer, Selene (Kate Beckinsale) as she fends off brutal attacks from both the Lycan clan and the Vampire faction that betrayed her. With her only allies, David (Theo James) and his father Thomas (Charles Dance), she must stop the eternal war between Lycans and Vampires, even if it means she has to make the ultimate sacrifice.
- Written by Sony Pictures Entertainment
The war between the Vampires and the Lycans wages on with the Lycans led by Marius are close to defeating the Vampires. He thinks if he can get the hybrid daughter of Vampire Death Dealer Selene, her blood will be the key to defeating the Vampires once and for all. But when they attempt to capture her, they fail and she tells one of them to tell Marius, she doesn't know where her daughter is; her daughter has cut ties with her. At the same time, Semira, Vampire Elder implores Thomas, another elder and father of David, Selene's ally to convince the Council of Elders to give Selene whom they deem a traitor, amnesty so that she could train new Death Dealers to deal with the Lycans. They grant it and send word to Selene who comes and trains the aspiring Death Dealers. It's when she battles one of Semira's people, that he subdues her with a toxin that paralyzes her. Semira then has her man kill the trainees with Selene's weapon. She then reveals she wants Selene for her blood. Eventually David learns of what Semira is doing and tries to get Selene away and takes her way to the only other Vampire stronghold there is. Eventually Marius learns of this and sets out to find Selene and find out for sure if she knows where her daughter is. And it's while they are there at the stronghold that David learns the truth about his lineage.
- Written by rcs0411@yahoo.com
The outcast Selene is hunted down by the Lycans led by the powerful Marius that wants her daughter Eve and by the vampires seeking revenge for the death of Viktor and Marcus. Out of the blue, she is attacked by Lycans but David helps her but is wounded. Meanwhile, the ambitious vampire Semira convinces David's father Thomas to plead to Cassius and the council of their coven to forgive the skilled Selene to train the new Death Dealers. He succeeds, but Selene and David are betrayed by Semira and her lover Vargas and David witnesses Semira killing his father. They have to flee to seek shelter at the Nordic Coven Vador where David learns the truth about his mother. When the sanctuary is invaded by Marius and the Lycans, Selene fights Marius that wants to know Eve's whereabouts. Who will win the fight?
- Written by Claudio Carvalho, Rio de Janeiro, Brazil
Vampire death dealer, Selene (Kate Beckinsale) fights to end the eternal war between the Lycan clan and the Vampire faction that betrayed her.
- Written by Sony Pictures Entertainment
Cast:
Kate Beckinsale as Selene
Theo James as David
Tobias Menzies as Marius
Lara Pulver as Semira
Charles Dance as Thomas
James Faulkner as Cassius
Peter Andersson as Vidar
Clementine Nicholson as Lena
Bradley James as Varga
Daisy Head as Alexia
Trailers:
Official "Blood" Trailer
Official Trailer
Trailer #1



Details
Name:Underworld Blood Wars (2016) BluRay 720p x264 [Hindi (Org)-English] - Hon3y
Description:






Underworld Blood Wars (2016) BluRay 720p x264 Dual Audio [Hindi AAC 2.0-English AAC 5.1] ESubs...Hon3y
Hindi Audi Credits: Hon3yHD-Own

Synched by: W3apoN-X(R3al_Star)


General
Format                                   : Matroska
Format version                           : Version 4 / Version 2
File size                                : 1.16 GiB
Duration                                 : 1 h 31 min
Overall bit rate                         : 1 808 kb/s
Movie name                               : Underworld Blood Wars---Pasha@Hon3yHD

Video
Format                                   : AVC
Format/Info                              : Advanced Video Codec
Format profile                           : High@L4.1
Format settings, CABAC                   : Yes
Format settings, ReFrames                : 12 frames
Codec ID                                 : V_MPEG4/ISO/AVC
Duration                                 : 1 h 31 min
Bit rate                                 : 1 488 kb/s
Width                                    : 1 280 pixels
Height                                   : 536 pixels
Display aspect ratio                     : 2.40:1
Frame rate mode                          : Constant
Frame rate                               : 23.976 (24000/1001) FPS
Color space                              : YUV
Chroma subsampling                       : 4:2:0
Bit depth                                : 8 bits
Scan type                                : Progressive
Bits/(Pixel*Frame)                       : 0.090
Stream size                              : 973 MiB (82%)
Title                                    : Underworld Blood Wars---Pasha@Hon3yHD

Audio
Format                                   : AAC
Format/Info                              : Advanced Audio Codec
Format profile                           : LC
Codec ID                                 : A_AAC
Duration                                 : 1 h 31 min
Bit rate                                 : 192 kb/s
Channel(s)                               : 2 channels
Channel positions                        : Front: L R
Sampling rate                            : 48.0 kHz
Frame rate                               : 46.875 FPS (1024 spf)
Compression mode                         : Lossy
Delay relative to video                  : 9 ms
Stream size                              : 125 MiB (11%)
Title                                    : Hindi---Pasha@Hon3yHD
Language                                 : Hindi
Default                                  : Yes

Audio 2
Format                                   : AAC
Format/Info                              : Advanced Audio Codec
Format profile                           : LC
Codec ID                                 : A_AAC
Duration                                 : 1 h 31 min
Bit rate                                 : 128 kb/s
Channel(s)                               : 6 channels
Channel positions                        : Front: L C R, Side: L R, LFE
Sampling rate                            : 48.0 kHz
Frame rate                               : 46.875 FPS (1024 spf)
Compression mode                         : Lossy
Delay relative to video                  : 9 ms
Stream size                              : 83.7 MiB (7%)
Title                                    : English---Pasha@Hon3yHD
Language                                 : English
Default                                  : No

Subtitle
Format                                   : UTF-8
Codec ID                                 : S_TEXT/UTF8
Codec ID/Info                            : UTF-8 Plain Text
Duration                                 : 1 h 30 min
Bit rate                                 : 48 b/s
Count of elements                        : 1062
Stream size                              : 31.9 KiB (0%)
Title                                    : English---Pasha@Hon3yHD
Language                                 : English
Default                                  : No

Chapters Menu
00:00:00.000                             : en:00:00:00.000
00:04:30.479                             : en:00:04:30.479
00:09:25.315                             : en:00:09:25.315
00:13:59.964                             : en:00:13:59.964
00:18:56.010                             : en:00:18:56.010
00:24:27.091                             : en:00:24:27.091
00:31:15.957                             : en:00:31:15.957
00:36:26.810                             : en:00:36:26.810
00:42:17.034                             : en:00:42:17.034
00:47:37.646                             : en:00:47:37.646
00:52:22.181                             : en:00:52:22.181
00:58:59.327                             : en:00:58:59.327
01:04:31.659                             : en:01:04:31.659
01:08:52.128                             : en:01:08:52.128
01:13:47.131                             : en:01:13:47.131
01:20:08.512                             : en:01:20:08.512

b30baf6bad09db286b4d45f902bde7d2.th.png a663c22e84f93e04b7c9a7e7d40b74d6.th.png 39eadf5a8f290a9139be4cc1a759ce6d.th.png de6df1dfc539b67835cf732510c951e2.th.png e3e7ad80a8a8fa4c86bc065ac11d83f8.th.png 8b8d30f9150a24e5fec77276d4cac9cf.th.png 63beac35bfe3bf0df5d4ccc0e78ccc8a.th.png 7ba12a0bcbd0bdf0466ef790480be3b8.th.png 4832f3ce1e03affae0f4c6ebf38c0303.th.png d9112b9d24f2f9305f4e22e00d843a5c.th.png
Category:Movies > Hollywood Dub
Lang:Hindi
Total Size:1.16 GB

:download:

|| Download This Movie Via Single Resumable Links Size: 1.16 GB ||

Direct-1 Google Drive | Direct-2 | Direct-3 |

Watch Online Click Here

Post a Comment

0 Comments