Crazy World Only 4 You

Sorry For The Inconvenience. If You are facing link dead or no google drive file access then inform us via comment

Latest Updates

Tuesday, 5 December 2017

Valerian And The City Of A Thousand Planets (2017) BRRip x264 Dual Audio [Hindi 5.0 + Eng 2.0] - Esub ~ Ranvijay

Poster


iMDB
Imdb Picture Title: Valerian and the City of a Thousand Planets
Year: 2017
Runtime: 137 minutes
Votes: 5771
Rating: 6.9/10
Language: English, French
Country: France
All Genres: Action, Adventure, Sci-Fi
Plot Outline: A dark force threatens Alpha, a vast metropolis and home to species from a thousand planets. Special operatives Valerian and Laureline must race to identify the marauding menace and safeguard not just Alpha, but the future of the universe.
Tagline: A universe without boundaries needs heroes without limits.
Director: Luc Besson
Writing By: Pierre Christin,Jean-Claude Mézières,Luc Besson,
Produced By: Luc Besson,Virginie Besson-Silla,Camille Courau,
Music: Alexandre Desplat
Plot:
VALERIAN AND THE CITY OF A THOUSAND PLANETS is the new adventure film from Luc Besson, the director of The Professional, The Fifth Element and Lucy, based on the comic book series which inspired a generation of artists, writers and filmmakers. In the 28th century, Valerian (Dane DeHaan) and Laureline (Cara Delevingne) are a team of special operatives charged with maintaining order throughout the human territories. Under assignment from the Minister of Defense, the two embark on a mission to the astonishing city of Alpha-an ever-expanding metropolis where species from all over the universe have converged over centuries to share knowledge, intelligence and cultures with each other. There is a mystery at the center of Alpha, a dark force which threatens the peaceful existence of the City of a Thousand Planets, and Valerian and Laureline must race to identify the marauding menace and safeguard not just Alpha, but the future of the universe.
In the 28th century, Valerian and Laureline are a team of special operatives charged with maintaining order throughout the human territories. Under assignment from the Minister of Defense, the two embark on a mission to the city of Alpha-an ever-expanding metropolis where species from all over the universe have converged over centuries to share knowledge, intelligence and cultures with each other. There is a mystery at the center of Alpha, a dark force which threatens the peaceful existence of the City of a Thousand Planets, and Valerian and Laureline must race to identify the marauding menace and safeguard not just Alpha, but the future of the universe.
A dark force threatens Alpha, a vast metropolis and home to species from a thousand planets. Special operatives Valerian and Laureline must race to identify the marauding menace and safeguard not just Alpha, but the future of the universe.

Cast:
Dane DeHaan as Major Valerian
Cara Delevingne as Sergeant Laureline
Clive Owen as Commander Arun Filitt
Rihanna as Bubble
Ethan Hawke as Jolly the Pimp
Herbie Hancock as Defence Minister
Kris Wu as Sergeant Neza
Sam Spruell as General Okto-Bar
Alain Chabat as Bob the Pirate
Rutger Hauer as President of the World State Federation
Trailers:
Trailer 3
Trailer #3
Trailer #2
Teaser Trailer



Details
Name:Valerian And The City Of A Thousand Planets (2017) BRRip x264 Dual Audio [Hindi 5.0 + Eng 2.0] ...
Description:
Valerian And The City Of A Thousand Planets (2017) BRRip x264 Dual Audio [Hindi 5.0 + Eng 2.0] - Esub ~ Ranvijay



 

Thanks To Rohit Sharma For Hindi Audio

Format                                   : Matroska
Format version                           : Version 4 / Version 2
File size                                : 1.47 GiB
Duration                                 : 2 h 17 min
Overall bit rate                         : 1 534 kb/s
Movie name                               : Valerian And The City Of A Thousand Planets 2017 720p BluRay X264 Dual Audio [Hindi 5.0 + Eng 2.0] - Esub ~ Ranvijay

Video
ID                                       : 1
Format                                   : AVC
Format/Info                              : Advanced Video Codec
Format profile                           : High@L4.1
Format settings, CABAC                   : Yes
Format settings, RefFrames               : 9 frames
Codec ID                                 : V_MPEG4/ISO/AVC
Duration                                 : 2 h 16 min
Bit rate                                 : 1 209 kb/s
Width                                    : 1 280 pixels
Height                                   : 536 pixels
Display aspect ratio                     : 2.40:1
Frame rate mode                          : Constant
Frame rate                               : 24.000 FPS
Original frame rate                      : 23.976 (24000/1001) FPS
Color space                              : YUV
Chroma subsampling                       : 4:2:0
Bit depth                                : 8 bits
Scan type                                : Progressive
Bits/(Pixel*Frame)                       : 0.073
Stream size                              : 1.16 GiB (79%)
Title                                    : ~Ranvijay~
Default                                  : Yes
Forced                                   : No

Audio #1
ID                                       : 2
Format                                   : AC-3
Format/Info                              : Audio Coding 3
Format settings, Endianness              : Big
Codec ID                                 : A_AC3
Duration                                 : 2 h 16 min
Bit rate mode                            : Constant
Bit rate                                 : 224 kb/s
Channel(s)                               : 6 channels
Channel positions                        : Front: L C R, Side: L R, LFE
Sampling rate                            : 48.0 kHz
Frame rate                               : 31.250 FPS (1536 SPF)
Bit depth                                : 16 bits
Compression mode                         : Lossy
Delay relative to video                  : 21 s 300 ms
Stream size                              : 219 MiB (15%)
Title                                    : ~Ranvijay~
Language                                 : Hindi
Service kind                             : Complete Main
Default                                  : No
Forced                                   : No

Audio #2
ID                                       : 3
Format                                   : AAC
Format/Info                              : Advanced Audio Codec
Format profile                           : HE-AAC / LC
Codec ID                                 : A_AAC
Duration                                 : 2 h 17 min
Bit rate                                 : 100.0 kb/s
Channel(s)                               : 2 channels
Channel positions                        : Front: L R
Sampling rate                            : 48.0 kHz / 24.0 kHz
Frame rate                               : 23.438 FPS (1024 SPF)
Compression mode                         : Lossy
Delay relative to video                  : 31 ms
Stream size                              : 98.0 MiB (7%)
Title                                    : ~Ranvijay~
Language                                 : English
Default                                  : Yes
Forced                                   : No

Text
ID                                       : 4
Format                                   : UTF-8
Codec ID                                 : S_TEXT/UTF8
Codec ID/Info                            : UTF-8 Plain Text
Duration                                 : 2 h 13 min
Bit rate                                 : 62 b/s
Count of elements                        : 1922
Stream size                              : 60.9 KiB (0%)
Title                                    : ~Ranvijay~
Language                                 : English
Default                                  : Yes
Forced                                   : No

                   
Category:Movies > Hollywood Dub
Lang:Hindi
Total Size:1.47 GB

:download:

|| Download This Movie Via Single Resumable Links Size: 1.47 GB ||

Direct-1 Google Drive | Direct-2 | Direct-3 |

Watch Online Click Here

No comments:

Post a Comment