Assassin’s Creed (2016) BluRay 720p x264 [Dual Audio] [English DD 5.1 + Hindi DD 5.1] – Mafiaking – M2Tv


Poster


iMDB
Imdb Picture Title: Assassin's Creed
Year: 2016
Runtime: 115 minutes
Votes: 105270
Rating: 6.0/10
Language: English, Spanish
Country: UK, France, Malta, USA, Taiwan, Canada, Hong Kong
All Genres: Action, Adventure, Drama, Fantasy, Sci-Fi
Plot Outline: When Callum Lynch explores the memories of his ancestor Aguilar and gains the skills of a Master Assassin, he discovers he is a descendant of the secret Assassins society.
Tagline: Your destiny is in your blood
Director: Justin Kurzel
Writing By: Michael Lesslie,Adam Cooper,Bill Collage,Patrick Désilets,Corey May,Jade Raymond,
Produced By: Markus Barmettler,Jean-Julien Baronnet,Chris Brigham,Christine Burgess-Quémard,Patrick Crowley,Jean de Rivieres,Daniel Emmerson,Michael Fassbender,Gerard Guillemot,Serge Hascoet,Philip Lee,Frank Marshall,Conor McCaughan,Arnon Milchan,Alex Taylor,Richard Whelan,
Music: Jed Kurzel
Plot:
Through Abstergo a company that creates a revolutionary technology that unlocks his genetic memories, Callum Lynch (Michael Fassbender) experiences the memories of his ancestor, Aguilar de Nerha (Aguilar Of Nerha), in 15th Century Spain. Callum discovers he is descended from a mysterious secret society, the Assassins and Templars, and amasses incredible knowledge and skills to take on the oppressive and powerful Templar organization in the present day.
- Written by 20th Century Fox
This is the quest of the Templars searching the mysterious relic called 'the apple of Eden' which holds the key to controlling mankind's free will itself and an assassin's attempt to stop them.
- Written by Keith Francis
A man named Callum Lynch is sentenced to death by lethal injection in Texas. However, the Abstergo Company fakes his death and Callum is brought to the headquarter in Madrid, Spain. Callum meets the CEO Alan Rikkin and learns that he is a descendant of members from the Assassin's Creed, a brotherhood that protects the Apple from the Templars. The Apple is a device that contains the genetic code for free will and the Templars may dominate the humans if they find where The Apple is hidden. Callum is submitted to the Animus, a machine developed by Rikkin's daughter Sofia to relive genetic memories and find where the Apple is. Along the experiment with the Animus, Callum meets his mother and other Assassin's Creed and embraces their cause. But Rikkin, who is a Templar, has retrieved the Apple. What will Callum do?
- Written by Claudio Carvalho, Rio de Janeiro, Brazil
When Callum Lynch explores the memories of his ancestor Aguilar and gains the skills of a Master Assassin, he discovers he is a descendant of the secret Assassins society.
- Written by Polly_Kat
Cast:
Michael Fassbender as Cal Lynch / Aguilar
Marion Cotillard as Sofia
Jeremy Irons as Rikkin
Brendan Gleeson as Joseph Lynch
Charlotte Rampling as Ellen Kaye
Michael Kenneth Williams as Moussa
Denis Ménochet as McGowan
Ariane Labed as Maria
Khalid Abdalla as Sultan Muhammad XII
Essie Davis as Cal's Mother
Trailers:
Trailer #2
Trailer #1


Details
Name:Assassin’s Creed (2016) BluRay 720p x264 [Dual Audio] [English DD 5.1 + Hindi DD 5.1] – Mafiaking – M2Tv
Description:

Assassin’s Creed (2016) 720p BluRay x264 [Dual-Audio][English DD 5.1 + Hindi DD 5.1] – Mafiaking – M2Tv

Original Digital Dolby 5.1 Hindi Audio @ 448Kbps.

69e51b993bca88c0d60b8952abde2925



Video
ID : 1
Format : AVC
Format/Info : Advanced Video Codec
Format profile : High@L3.1
Format settings, CABAC : Yes
Format settings, ReFrames : 5 frames
Muxing mode : Header stripping
Codec ID : V_MPEG4/ISO/AVC
Duration : 1 h 55 min
Bit rate : 871 kb/s
Nominal bit rate : 925 kb/s
Width : 1 280 pixels
Height : 536 pixels
Display aspect ratio : 2.40:1
Frame rate mode : Constant
Frame rate : 23.976 (24000/1001) FPS
Color space : YUV
Chroma subsampling : 4:2:0
Bit depth : 8 bits
Scan type : Progressive
Bits/(Pixel*Frame) : 0.053
Stream size : 720 MiB (55%)
Title : Mafiaking
Language : English
Default : No
Forced : No

Audio #1
ID : 2
Format : AC-3
Format/Info : Audio Coding 3
Mode extension : CM (complete main)
Format settings, Endianness : Big
Muxing mode : Header stripping
Codec ID : A_AC3
Duration : 1 h 55 min
Bit rate mode : Constant
Bit rate : 448 kb/s
Channel(s) : 6 channels
Channel positions : Front: L C R, Side: L R, LFE
Sampling rate : 48.0 kHz
Frame rate : 31.250 FPS (1536 spf)
Compression mode : Lossy
Stream size : 370 MiB (28%)
Title : Mafiaking
Language : Hindi
Default : Yes
Forced : No

Audio #2
ID : 3
Format : AC-3
Format/Info : Audio Coding 3
Mode extension : CM (complete main)
Format settings, Endianness : Big
Muxing mode : Header stripping
Codec ID : A_AC3
Duration : 1 h 55 min
Bit rate mode : Constant
Bit rate : 224 kb/s
Channel(s) : 6 channels
Channel positions : Front: L C R, Side: L R, LFE
Sampling rate : 48.0 kHz
Frame rate : 31.250 FPS (1536 spf)
Compression mode : Lossy
Stream size : 185 MiB (14%)
Title : Mafiaking
Language : English
Default : No
Forced : No


:ss:

1cbc10.th.png 3fc74e.th.png 284951.th.png 5bc32c.th.png 47ff69.th.png 727c34.th.png
Category:Movies > Hollywood Dub
Lang:Hindi
Total Size:1.28 GB



Sample
:download:

|| Download This Movie Via Single Resumable Links Size: 1.27 GB ||

Direct-1 Google Drive | Direct-2 | Direct-3 |

Watch Online Click Here

Post a Comment

0 Comments