Crazy World Only 4 You

Sorry For The Inconvenience. If You are facing link dead or no google drive file access then inform us via comment

Latest Updates

Wednesday, 3 January 2018

Beethoven (1992) BluRay 720p x264 Dual Audio [English - Hindi] Esub


Poster


iMDB
Imdb Picture Title: Beethoven
Year: 1992
Runtime: 87 minutes
Votes: 55017
Rating: 5.6/10
Language: English
Country: USA
All Genres: Comedy, Drama, Family
Plot Outline: A slobbering St. Bernard becomes the center of attention for a loving family, but must contend with a dog-napping veterinarian and his henchmen.
Tagline: He'll grow on you.
Director: Brian Levant
Writing By: John Hughes,Amy Holden Jones,
Produced By: Michael C. Gross,Sheldon Kahn,Joe Medjuck,Ivan Reitman,Gordon A. Webb,
Music: Randy Edelman
Cast:
Charles Grodin as George Newton
Bonnie Hunt as Alice Newton
Dean Jones as Dr. Varnick
Nicholle Tom as Ryce
Christopher Castile as Ted
Sarah Rose Karr as Emily
Oliver Platt as Harvey
Stanley Tucci as Vernon
David Duchovny as Brad
Patricia Heaton as Brie
Trailers:
Beethoven


Details
Name:Beethoven 1992 720p Esub BluRay Dual Audio English Hindi GOPISAHI
Description:
a1431f49ceab4fb9602104257d15f3de.jpg
Format                         : Matroska
Format version                 : Version 4 / Version 2
File size                      : 611 MiB
Duration                       : 1 h 27 min
Overall bit rate               : 981 kb/s
Movie name                     : Beethoven 1992 GOPISAHI

Video
Format                         : AVC
Codec ID                       : V_MPEG4/ISO/AVC
Duration                       : 1 h 27 min
Bit rate                       : 800 kb/s
Width                          : 1 272 pixels
Height                         : 688 pixels
Display aspect ratio           : 1.85:1
Frame rate mode                : Constant
Frame rate                     : 23.976 (24000/1001) FPS
Stream size                    : 498 MiB (82%)
Writing library                : x264

Audio #1
Format                         : AAC
Duration                       : 1 h 27 min
Bit rate                       : 91.0 kb/s
Channel(s)                     : 6 channels
Channel positions              : Front: L C R, Side: L R, LFE
Sampling rate                  : 44.1 kHz
Frame rate                     : 43.066 FPS (1024 SPF)
Stream size                    : 56.7 MiB (9%)
Language                       : English

Audio #2
Format                         : AAC
Duration                       : 1 h 26 min
Bit rate                       : 87.4 kb/s
Channel(s)                     : 6 channels
Channel positions              : Front: L C R, Side: L R, LFE
Sampling rate                  : 44.1 kHz
Frame rate                     : 43.066 FPS (1024 SPF)
Stream size                    : 54.3 MiB (9%)
Language                       : Hindi

Text #1
Title                          : GOPISAHI SDH
Language                       : English

Text #2
Language                       : English


Category:Movies > Hollywood Dub
Lang:Hindi
Total Size:610.51 MB

:download:

|| Download This Movie Via Single Resumable Links Size: 611 MB ||

Direct-1 Google Drive | Direct-2 | Direct-3 |

Watch Online Click Here

No comments:

Post a Comment