Crazy World Only 4 You

Sorry For The Inconvenience. If You are facing link dead or no google drive file access then inform us via comment

Latest Updates

Sunday, 7 January 2018

Empire Of The Wolves (2005) DvDRip Hindi GOPISAHI


Poster


iMDB
Imdb Picture Original Title: L'empire des loups
Title: Empire of the Wolves
Year: 2005
Runtime: 128 minutes
Votes: 10083
Rating: 5.9/10
Language: French
Country: France
All Genres: Action, Crime, Drama, Mystery, Thriller
Plot Outline: When the young detective Paul Nerteaux finds the third slashed female corpse of illegal Turkish immigrants, he decides to ask for support to the experienced dark retired detective ...
Tagline: If You Can't Remember Your Past...You Can't Save Your Future.
Director: Chris Nahon
Writing By: Jean-Christophe Grangé,Jean-Christophe Grangé,Chris Nahon,Christian Clavier,Franck Ollivier,Luc Bossi,Simon Michaël,
Produced By: Andrew Colton,Patrice Ledoux,Francesco Pamphili,
Music: Olivia Bouyssou Luca De' Medici Grégory Fougères Dan Levy Pascal Morel Samuel Narboni
Cast:
Jean Reno as Jean-Louis Schiffer
Arly Jover as Anna Heymes
Jocelyn Quivrin as Paul Nerteaux
Laura Morante as Mathilde Urano
Philippe Bas as Laurent
David Kammenos as Azer Zeki
Didier Sauvegrain as Dr. Ackerman
Patrick Floersheim as Philippe Charlier
Etienne Chicot as Olivier Amien
Albert Dray as Le lieutenant


Details
Name:Empire Of The Wolves 2005 DVD Hindi GOPISAHI
Description:

Format                         : Matroska
Format version                 : Version 4 / Version 2
File size                      : 293 MiB
Duration                       : 1 h 45 min
Overall bit rate               : 388 kb/s
Movie name                     : Empire Of The Wolves 2005

Video
Format                         : AVC
Codec ID                       : V_MPEG4/ISO/AVC
Duration                       : 1 h 45 min
Bit rate                       : 300 kb/s
Width                          : 1 178 pixels
Height                         : 530 pixels
Display aspect ratio           : 2.223
Original display aspect ratio  : 2.222
Frame rate mode                : Constant
Frame rate                     : 23.976 (24000/1001) FPS
Stream size                    : 227 MiB (77%)
Writing library                : x264

Audio
Format                         : AAC
Duration                       : 1 h 42 min
Bit rate                       : 88.6 kb/s
Channel(s)                     : 6 channels
Channel positions              : Front: L C R, Side: L R, LFE
Sampling rate                  : 44.1 kHz
Frame rate                     : 43.066 FPS (1024 SPF)
Stream size                    : 64.9 MiB (22%)
Language                       : Hindi


Category:Movies > Hollywood Dub
Lang:Hindi
Total Size:293.45 MB

:download:

|| Download This Movie Via Single Resumable Links Size: 293 MB ||

Direct-1 Google Drive | Direct-2 | Direct-3 |

Watch Online Click Here

No comments:

Post a Comment