STAY WITH US

header ads

Goodbye Christopher Robin (2017) BluRay 720p x264 Dual Audio [Hindi-English] AAC 5.1 ESub...Hon3y


Poster


iMDB
Imdb Picture Title: Goodbye Christopher Robin
Year: 2017
Runtime: 107 minutes
Votes: 2378
Rating: 7.2/10
Language: English
Country: UK
All Genres: Biography, Family, History
Plot Outline: A behind-the-scenes look at the life of author A.A. Milne and the creation of the Winnie the Pooh stories inspired by his son C.R. Milne.
Tagline: Inspired by the True Story
Director: Simon Curtis
Writing By: Frank Cottrell Boyce,Simon Vaughan,
Produced By: Steve Christian,Simon Curtis,Mark Hubbard,Damian Jones,Simon Vaughan,
Music: Carter Burwell
Cast:
Vicki Pepperdine as Betty
Margot Robbie as Daphne Milne
Domhnall Gleeson as Alan Milne
Will Tilston as Christopher Robin Aged 8
Alex Lawther as Christopher Robin Aged 18
Stephen Campbell Moore as Ernest
Richard McCabe as Rupert
Geraldine Somerville as Lady O
Mossie Smith as Sharon the Midwife
Stanley Hamblin as Christopher Robin Aged 6 Months
Trailers:
Official Trailer
Official Trailer



Details
Name:Goodbye Christopher Robin (2017) BluRay 720p x264 Dual Audio [Hindi-English] AAC 5.1 ESub...Hon3y
Description:
Goodbye Christopher Robin (2017) BluRay 720p x264 Dual Audio [Hindi-English] AAC 5.1 ESub...Hon3y







Hindi Audio Source Mr.RajPut...Thank You Soo Much Bro
General
Format                                   : Matroska
Format version                           : Version 4 / Version 2
File size                                : 1.20 GiB
Duration                                 : 1 h 47 min
Overall bit rate                         : 1 603 kb/s
Movie name                               : Goodbye Christopher Robin---Pasha@Hon3yHD

Video
 Format                                   : AVC
Format/Info                              : Advanced Video Codec
Format profile                           : High@L4.1
Format settings, CABAC                   : Yes
Format settings, RefFrames               : 8 frames
Codec ID                                 : V_MPEG4/ISO/AVC
Duration                                 : 1 h 47 min
Bit rate                                 : 1 216 kb/s
Width                                    : 1 280 pixels
Height                                   : 692 pixels
Display aspect ratio                     : 1.85:1
Frame rate mode                          : Constant
Frame rate                               : 23.976 (24000/1001) FPS
Color space                              : YUV
Chroma subsampling                       : 4:2:0
Bit depth                                : 8 bits
Scan type                                : Progressive
Bits/(Pixel*Frame)                       : 0.057
Stream size                              : 931 MiB (76%)
Title                                    : Goodbye Christopher Robin---Pasha@Hon3yHD


Audio 1
 Format                                   : AAC
Format/Info                              : Advanced Audio Codec
Format profile                           : LC
Codec ID                                 : A_AAC
Duration                                 : 1 h 47 min
Bit rate                                 : 192 kb/s
Channel(s)                               : 6 channels
Channel positions                        : Front: L C R, Side: L R, LFE
Sampling rate                            : 48.0 kHz
Frame rate                               : 46.875 FPS (1024 SPF)
Compression mode                         : Lossy
Delay relative to video                  : -12 ms
Stream size                              : 147 MiB (12%)
Title                                    : Hindi---Pasha@Hon3yHD
Language                                 : Hindi
Default                                  : Yes
Forced                                   : Yes

Audio 2
 Format                                   : AAC
Format/Info                              : Advanced Audio Codec
Format profile                           : LC
Codec ID                                 : A_AAC
Duration                                 : 1 h 47 min
Bit rate                                 : 192 kb/s
Channel(s)                               : 6 channels
Channel positions                        : Front: L C R, Side: L R, LFE
Sampling rate                            : 48.0 kHz
Frame rate                               : 46.875 FPS (1024 SPF)
Compression mode                         : Lossy
Delay relative to video                  : -21 ms
Stream size                              : 147 MiB (12%)
Title                                    : English---Pasha@Hon3yHD
Language                                 : English
Default                                  : No

SubTitle
 Format                                   : UTF-8
Codec ID                                 : S_TEXT/UTF8
Codec ID/Info                            : UTF-8 Plain Text
Duration                                 : 1 h 40 min
Bit rate                                 : 70 b/s
Count of elements                        : 1786
Stream size                              : 51.4 KiB (0%)
Title                                    : English---Pasha@Hon3yHD
Language                                 : English
Default                                  : Yes

Chapters Menu
 00:00:00.000                             : :00:00:00.000
00:04:03.952                             : :00:04:03.952
00:07:01.171                             : :00:07:01.171
00:10:32.632                             : :00:10:32.632
00:13:40.528                             : :00:13:40.528
00:16:48.591                             : :00:16:48.591
00:20:43.409                             : :00:20:43.409
00:25:44.793                             : :00:25:44.793
00:30:36.752                             : :00:30:36.752
00:35:25.582                             : :00:35:25.582
00:40:50.740                             : :00:40:50.740
00:48:22.108                             : :00:48:22.108
00:52:32.733                             : :00:52:32.733
00:57:53.595                             : :00:57:53.595
01:03:35.812                             : :01:03:35.812
01:07:38.513                             : :01:07:38.513
01:12:43.860                             : :01:12:43.859
01:18:55.731                             : :01:18:55.731
01:21:45.609                             : :01:21:45.609
01:25:16.653                             : :01:25:16.653
01:29:10.428                             : :01:29:10.428
01:32:27.917                             : :01:32:27.917
01:35:55.917                             : :01:35:55.917
01:41:03.266                             : :01:41:03.266

 
           

Category:Movies > Hollywood Dub
Lang:Hindi
Total Size:1.20 GB

:download:

|| Download This Movie Via Single Resumable Links Size: 1.20 GB ||

Direct-1 Google Drive | Direct-2 | Direct-3 |

Watch Online Click Here

Post a Comment

0 Comments