Crazy World Only 4 You

Sorry For The Inconvenience. If You are facing link dead or no google drive file access then inform us via comment

Latest Updates

Saturday, 6 January 2018

Kung Fu Panda Holiday (2010) BluRay 720p Multi Audio [English - Hindi - Tamil] x264


Poster


iMDB
Imdb Picture Title: Kung Fu Panda Holiday
Year: 2010
Runtime: 21 minutes
Votes: 4252
Rating: 6.9/10
Language: English
Country: USA
All Genres: Animation, Short, Comedy, Family
Plot Outline: Po is to host the annual winter holiday feast and he struggles to meet his friends' expectations.
Director: Tim Johnson
Writing By: Jonathan Groff,Jon Pollack,
Produced By: Melissa Cobb,Ellen Coss,
Music: Henry Jackman John Powell Hans Zimmer
Cast:
Jack Black as Po
Dustin Hoffman as Shifu
Angelina Jolie as Tigress
Seth Rogen as Mantis
Lucy Liu as Viper
David Cross as Crane
James Hong as Mr. Ping
Jack McBrayer as Wo Hop
Dan Fogler as Zeng
Jackie Chan as Monkey
Trailers:
Kung Fu Panda Holiday
Kung Fu Panda Holiday



Details
Name:Kung Fu Panda Holiday 2010 720p Esub BluRay Dual Audio English Hindi Tamil GOPISAHI
Description:
52665_front

Format                         : Matroska
Format version                 : Version 4 / Version 2
File size                      : 148 MiB
Duration                       : 22 min 26 s
Overall bit rate               : 921 kb/s
Movie name                     : Kung Fu Panda Holiday 2010

Video
Format                         : AVC
Codec ID                       : V_MPEG4/ISO/AVC
Duration                       : 21 min 2 s
Bit rate                       : 700 kb/s
Width                          : 1 264 pixels
Height                         : 720 pixels
Display aspect ratio           : 16:9
Frame rate mode                : Constant
Frame rate                     : 29.970 (29970/1000) FPS
Original frame rate            : 29.970 (30000/1001) FPS
Stream size                    : 105 MiB (71%)
Writing library                : x264 core 152 r2851 ba24899

Audio #1
Format                         : AAC
Duration                       : 21 min 2 s
Bit rate                       : 91.5 kb/s
Channel(s)                     : 6 channels
Channel positions              : Front: L C R, Side: L R, LFE
Sampling rate                  : 44.1 kHz
Frame rate                     : 43.066 FPS (1024 SPF)
Stream size                    : 13.8 MiB (9%)
Language                       : English

Audio #2
Format                         : AAC
Duration                       : 21 min 2 s
Bit rate                       : 92.5 kb/s
Channel(s)                     : 6 channels
Channel positions              : Front: L C R, Side: L R, LFE
Sampling rate                  : 44.1 kHz
Frame rate                     : 43.066 FPS (1024 SPF)
Stream size                    : 13.9 MiB (9%)
Language                       : Tamil

Audio #3
Format                         : AAC
Duration                       : 21 min 3 s
Bit rate                       : 96.0 kb/s
Channel(s)                     : 6 channels
Channel positions              : Front: L C R, Side: L R, LFE
Sampling rate                  : 44.1 kHz
Frame rate                     : 43.066 FPS (1024 SPF)
Stream size                    : 14.2 MiB (10%)
Language                       : Hindi

Text
Language                       : English

Category:Movies > Hollywood Dub
Lang:Hindi
Total Size:147.87 MB

:download:

|| Download This Movie Via Single Resumable Links Size: 148 MB ||

Direct-1 Google Drive | Direct-2 | Direct-3 |

Watch Online Click Here

No comments:

Post a Comment