November Criminals (2017) BRRip 720p x264 AAC - MkvCage


Poster


iMDB
Imdb Picture Title: November Criminals
Year: 2017
Language: English
Country: USA
All Genres: Crime, Drama
Plot Outline: A teenager takes on his own investigation of a murder in Washington D.C.
Director: Sacha Gervasi
Writing By: Steven Knight,Sacha Gervasi,Sam Munson,
Produced By: Charles V. Bender,Marc Bienstock,Jessica de Rothschild,Trevor Duke-Moretz,D.J. Gugenheim,Bill Johnson,Ara Keshishian,Steven Knight,Teri Duke Moretz,Beth O'Neil,Erika Olde,Steven Rales,Jim Seibel,Angus Sutherland,
Music: David Norland
Cast:
Ansel Elgort as Addison Schacht
Chloƫ Grace Moretz as Phoebe
Catherine Keener as Fiona
David Strathairn as Theo Schacht
Terry Kinney as Principal Karlstadt
Cory Hardrict as D Cash
Danny Flaherty as Noel
Mickey Gilmore as Police Officer
Victor Williams as Mr. Broadus
Allie Marshall as Cafe Patron
Trailers:
Official Trailer


Details
Name: November Criminals (2017) 720p BRRip 800MB - MkvCage
Description:
Marshall (2017) BRRip 720p x264 AAC - MkvCage
november-criminals-blu-ray-cover-95

-:RELEASE NOTES:-
  1. Format                      : Matroska
  2. Format version              : Version 4 / Version 2
  3. File size                   : 802 MiB
  4. Duration                    : 1 h 25 min
  5. Overall bit rate            : 1 306 kb/s
  6. Movie name                  : November.Criminals.2017.720p.BRRip.800MB.MkvCage
  7. Encoded date                : UTC 2017-12-29 00:58:37
  8. Writing application         : mkvmerge v9.7.1 ('Pandemonium') 64bit
  9. Writing library             : libebml v1.3.4 + libmatroska v1.4.5
  10. Video
  11. ID                          : 2
  12. Format                      : AVC
  13. Format/Info                 : Advanced Video Codec
  14. Format profile              : High@L4.1
  15. Format settings, CABAC      : Yes
  16. Format settings, RefFrames  : 9 frames
  17. Codec ID                    : V_MPEG4/ISO/AVC
  18. Duration                    : 1 h 25 min
  19. Bit rate                    : 1 204 kb/s
  20. Width                       : 1 280 pixels
  21. Height                      : 720 pixels
  22. Display aspect ratio        : 16:9
  23. Frame rate mode             : Constant
  24. Frame rate                  : 23.976 (24000/1001) FPS
  25. Color space                 : YUV
  26. Chroma subsampling          : 4:2:0
  27. Bit depth                   : 8 bits
  28. Scan type                   : Progressive
  29. Bits/(Pixel*Frame)          : 0.054
  30. Stream size                 : 740 MiB (92%)
  31. Writing library             : x264 core 133 r2334 a3ac64b
  32. Encoding settings           : cabac=1 / ref=9 / deblock=1:0:0 / analyse=0x3:0x133 / me=umh / subme=10 / psy=1 / psy_rd=1.00:0.00 / mixed_ref=1 / me_range=24 / chroma_me=1 / trellis=2 / 8x8dct=1 / cqm=0 / deadzone=21,11 / fast_pskip=1 / chroma_qp_offset=-2 / threads=48 / lookahead_threads=5 / sliced_threads=0 / nr=0 / decimate=1 / interlaced=0 / bluray_compat=0 / constrained_intra=0 / bframes=6 / b_pyramid=2 / b_adapt=2 / b_bias=0 / direct=3 / weightb=1 / open_gop=0 / weightp=2 / keyint=240 / keyint_min=23 / scenecut=40 / intra_refresh=0 / rc_lookahead=60 / rc=2pass / mbtree=1 / bitrate=1204 / ratetol=1.0 / qcomp=0.60 / qpmin=10 / qpmax=51 / qpstep=4 / cplxblur=20.0 / qblur=0.5 / vbv_maxrate=62500 / vbv_bufsize=78125 / nal_hrd=none / ip_ratio=1.40 / aq=1:1.00
  33. Default                     : Yes
  34. Forced                      : No
  35. Audio
  36. ID                          : 1
  37. Format                      : AAC
  38. Format/Info                 : Advanced Audio Codec
  39. Format profile              : HE-AAC / LC
  40. Codec ID                    : A_AAC
  41. Duration                    : 1 h 25 min
  42. Bit rate                    : 100.0 kb/s
  43. Channel(s)                  : 2 channels
  44. Channel positions           : Front: L R
  45. Sampling rate               : 48.0 kHz / 24.0 kHz
  46. Frame rate                  : 23.438 FPS (1024 SPF)
  47. Compression mode            : Lossy
  48. Delay relative to video     : 31 ms
  49. Stream size                 : 61.4 MiB (8%)
  50. Language                    : English
  51. Default                     : Yes
  52. Forced                      : No
  53. Text
  54. ID                          : 3
  55. Format                      : UTF-8
  56. Codec ID                    : S_TEXT/UTF8
  57. Codec ID/Info               : UTF-8 Plain Text
  58. Duration                    : 1 h 17 min
  59. Bit rate                    : 71 b/s
  60. Count of elements           : 1246
  61. Stream size                 : 40.5 KiB (0%)
  62. Language                    : English
  63. Default                     : Yes
  64. Forced                      : No

-:SCREENSHOTS:-

November.Criminals.2017.720p.BRRip.800_MB.Mkv_Cage.mkv
Category:Movies > 720P Bluray
Lang:English  English
Total Size:802.26 MB

:download:

|| Download This Movie Via Single Resumable Links Size: 802 MB ||

Direct-1 Google Drive | Direct-2 | Direct-3 |

Watch Online Click Here

Post a Comment

0 Comments