Crazy World Only 4 You

Sorry For The Inconvenience. If You are facing link dead or no google drive file access then inform us via comment

Latest Updates

Monday, 1 January 2018

Sarbjit (2016) Hindi BluRay 720p x264 AAC 5.1 ESub - DDR


Poster


iMDB
Imdb Picture Title: Sarbjit
Year: 2016
Runtime: 131 minutes
Votes: 3196
Rating: 7.3/10
Language: Hindi
Country: India
All Genres: Biography, Drama, History, Musical
Plot Outline: Biopic of Sarabjit Singh, a farmer residing at Bhikiwind, Punjab, near the Indo-Pak border, crossed the border after having a couple of drinks. However, he was mistaken to be an Indian spy and was sentenced with capital punishment.
Director: Omung Kumar
Writing By: Utkarshini Vashishtha,Rajesh Beri,Utkarshini Vashishtha,
Produced By: Akshay Balsaraf,Jackky Bhagnani,Vashu Bhagnani,Hanif Chunawala,Muffazal Dalal,Deepshika Deshmukh,Bhushan Kumar,Krishan Kumar,Omung Kumar,Zafar Mehdi,Aftab Qureshi,Sandeep Singh,
Music: Shail Hada Pritesh Mehta
Cast:
Randeep Hooda as Sarabjit Singh
Aishwarya Rai Bachchan as Dalbir Kaur
Richa Chadha as Sukhpreet Kaur
Darshan Kumar as Awais Sheikh
Shiwani Saini as Swapan Kaur
Ankita Shrivastav as Poonam Kaur
Ankur Bhatia as Mandev - Dalbir's husband
Arbaaz Ali Khan as
Abhimanyu as Other Prisoner
Amritpal as Sarpanch
Trailers:
Official Trailer


Details
Name:Sarbjit (2016) Hindi 720p BluRay x264 AAC Esubs -TeamTNT
Description:

** SARBJIT **

** 2016 **
** Tiny 720p / Blu-Ray / x264 / AAC 5.1 **

** English Subtitle(s) **



[ Info ]
Source : DDR Blu-ray BD50
Format : Matroska
File size : 1.06 GiB
Duration : 2h 11mn
Overall bit rate : 1 153 Kbps

Video
Format : AVC
Format/Info : Advanced Video Codec
Format profile : High@L4.1
Format settings, CABAC : Yes
ormat profile : High@L4.1
Format settings, CABAC : Yes
Format settings, ReFrames : 12 frames
Codec ID : V_MPEG4/ISO/AVC
Duration : 2h 11mn
Bit rate : 956 Kbps
Width : 1 280 pixels
Height : 532 pixels
Display aspect ratio : 2.40:1
Frame rate mode : Constant
Frame rate : 24.000 fps
color space : YUV
Chroma subsampling : 4:2:0
Bit depth : 8 bits
Scan type : Progressive
Bits/(Pixel*Frame) : 0.059
Stream size : 903 MiB (83%)
Default : Yes
Forced : No
color range : Limited
color primaries : BT.709

Audio
Format : AAC
Format/Info : Advanced Audio Codec
Format profile : LC
Codec ID : A_AAC
Duration : 2h 11mn
Bit rate : 192 Kbps
Channel(s) : 6 channels
Channel positions : Front: L C R, Side: L R, LFE
Sampling rate : 48.0 KHz
Frame rate : 46.875 fps (1024 spf)
Compression mode : Lossy
Delay relative to video : 19ms
Stream size : 181 MiB (17%)
Language : Hindi
Default : Yes
Forced : No

Text
Format : VobSub
Muxing mode : zlib
Codec ID : S_VOBSUB
Codec ID/Info : Picture based subtitle format used on DVDs
Duration : 2h 4mn
Bit rate : 2 798 bps
Count of elements : 1579
Stream size : 2.49 MiB (0%)
Language : English
Default : Yes
Forced : No

Chapters = YES

[ A DDR Exclusive Tiny Encode !!! NOTICE ]

 [ SCREENS ]

f834d8f9b525dc14d76ac8c873b9b383.th.png 5d7a0710b275a204530311c755a01366.th.png 497880f0d043a7981f58705cbc3451f3.th.png 0aedc1c9a3b28d2bc07ba7c014953cdd.th.png 5392693bb6af819ac6a03f8555fec8d3.th.png 0e969521f5aa1059f4a4abe115b5cd65.th.png f298973ace0a6cef955354d07152ba16.th.png 2a88fb8a271aaebffa57a37ab20fdb0b.th.png aad78cb625814bb087cd2eb6d12a6c73.th.png 2d85ac92a3982d82642ae12d65a43c26.th.png
Category:Movies > Bollywood
Lang:Hindi
Total Size:1.07 GB

:download:

|| Download This Movie Via Single Resumable Links Size: 1.06 GB ||

Direct-1 Google Drive | Direct-2 | Direct-3 |

Watch Online Click Here

No comments:

Post a Comment