Crazy World Only 4 You

Sorry For The Inconvenience. If You are facing link dead or no google drive file access then inform us via comment

Latest Updates

Monday, 1 January 2018

Tarzan and the Lost City (1998) DvDRip Multi Audio [English + Hindi + Tamil + Telugu]


Poster


iMDB
Imdb Picture Title: Tarzan and the Lost City
Year: 1998
Runtime: 83 minutes
Votes: 1905
Rating: 3.9/10
Language: English, Zulu
Country: USA, Germany, Australia
All Genres: Action, Adventure, Family, Fantasy
Plot Outline: Tarzan returns to his homeland of Africa to save his home from destruction.
Tagline: The Lord of the Apes returns to the jungle to save the heart of civilization from the forces of evil.
Director: Carl Schenkel
Writing By: Edgar Rice Burroughs,Bayard Johnson,J. Anderson Black,
Produced By: Stanley S. Canter,Greg Coote,Michael L. Games,Dieter Geissler,Marina Glass,Dustin Hoffman,Michael Lake,Lawrence Mortorff,Kurt Silberschneider,David Wicht,Peter Ziegler,
Music: Christopher Franke
Cast:
Casper Van Dien as Tarzan
Jane March as Jane Porter
Steven Waddington as Ravens
Winston Ntshona as Mugambe
Rapulana Seiphemo as Kaya
Ian Roberts as Captain Dooley
Sean Taylor as Wilkes
Gys de Villiers as Schiller
Russel Savadier as Archer
Paul Buckby as Jerjynski
Trailers:
Tarzan and the Lost City


Details
Name:Tarzan and the Lost City 1998 DvD M Audios English Hindi Tamil Telugu GOPISAHI
Description:

Format                         : Matroska
Format version                 : Version 4 / Version 2
File size                      : 296 MiB
Duration                       : 1 h 24 min
Overall bit rate               : 491 kb/s
Movie name                     : Tarzan and the Lost City 1998

Video
Format                         : AVC
Codec ID                       : V_MPEG4/ISO/AVC
Duration                       : 1 h 24 min
Bit rate                       : 200 kb/s
Width                          : 640 pixels
Height                         : 272 pixels
Display aspect ratio           : 2.35:1
Frame rate mode                : Constant
Frame rate                     : 23.976 (24000/1001) FPS
Stream size                    : 121 MiB (41%)
Writing library                : x264 core 152 r2851 ba24899

Audio #1
Format                         : AAC
Duration                       : 1 h 24 min
Bit rate                       : 74.8 kb/s
Channel(s)                     : 6 channels
Channel positions              : Front: L C R, Side: L R, LFE
Sampling rate                  : 44.1 kHz
Frame rate                     : 43.066 FPS (1024 SPF)
Stream size                    : 45.1 MiB (15%)
Language                       : English

Audio #2
Format                         : AAC
Duration                       : 1 h 24 min
Bit rate                       : 80.9 kb/s
Channel(s)                     : 6 channels
Channel positions              : Front: L C R, Side: L R, LFE
Sampling rate                  : 44.1 kHz
Frame rate                     : 43.066 FPS (1024 SPF)
Stream size                    : 48.8 MiB (16%)
Language                       : Hindi

Audio #3
Format                         : AAC
Duration                       : 1 h 24 min
Bit rate                       : 81.1 kb/s
Channel(s)                     : 6 channels
Channel positions              : Front: L C R, Side: L R, LFE
Sampling rate                  : 44.1 kHz
Frame rate                     : 43.066 FPS (1024 SPF)
Stream size                    : 48.9 MiB (17%)
Language                       : Tamil

Audio #4
Format                         : AAC
Duration                       : 1 h 24 min
Bit rate                       : 48.0 kb/s
Channel(s)                     : 6 channels
Channel positions              : Front: L C R, Side: L R, LFE
Sampling rate                  : 44.1 kHz
Frame rate                     : 43.066 FPS (1024 SPF)
Compression mode               : Lossy
Stream size                    : 30.1 MiB (10%)
Language                       : Telugu


Category:Movies > Hollywood Dub
Lang:Hindi
Total Size:295.80 MB

:download:

|| Download This Movie Via Single Resumable Links Size: 296 MB ||

Direct-1 Google Drive | Direct-2 | Direct-3 |

Watch Online Click Here

No comments:

Post a Comment