Crazy World Only 4 You

Sorry For The Inconvenience. If You are facing link dead or no google drive file access then inform us via comment

Latest Updates

Tuesday, 2 January 2018

The Foreigner (2017) BRRip 720p x264 Dual Audio [Hindi DD5.1 - English 2.0] - Esub ~ Ranvijay


Poster


iMDB
Imdb Picture Title: The Foreigner
Year: 2017
Runtime: 114 minutes
Votes: 4339
Rating: 7.4/10
Language: English, Mandarin
Country: UK, China, USA
All Genres: Action, Thriller
Plot Outline: A humble businessman with a buried past seeks justice when his daughter is killed in an act of terrorism. A cat-and-mouse conflict ensues with a government official, whose past may hold clues to the killers' identities.
Tagline: Never push a good man too far
Director: Martin Campbell
Writing By: David Marconi,Stephen Leather,
Produced By: Oren Aviv,Phillip Button,Jackie Chan,Cary Cheng,Adam Fogelson,Wayne Marc Godfrey,Defu Jiang,Penny Jiang,Claire Kupchak,Arnaud Lannic,Stephen Leather,Zhao Lei,Dave Li,Karl Li,D. Scott Lumpkin,David Marconi,Jamie Marshall,Jianhong Qi,Arthur M. Sarkissian,Cathy Schulman,Robert Simonds,Sunny Sun,Joe Tam,Donald Tang,Zhongjun Wang,Zhonglei Wang,Andrew Warren,Liu Xinxuan,John Zeng,
Music: Cliff Martinez
Cast:
Katie Leung as Fan
Jackie Chan as Quan Ngoc Minh
Rufus Jones as Ian Wood
Mark Tandy as Simpson
John Cronin as Denis Fisher
Caolan Byrne as McCormick
Donna Bernard as Channel A News Anchor
Aaron Monaghan as Pat Nugent
Niall McNamee as Patrick O'Reilly
Pierce Brosnan as Liam Hennessy
Trailers:
Trailer #2
Trailer #1


Details
Name:The Foreigner (2017) BRRip 720p x264 Dual Audio [Hindi DD5.1 - English 2.0] - Esub ~ Ranvijay
Description:
The Foreigner (2017) BRRip 720p x264 Dual Audio [Hindi DD5.1 - English 2.0] - Esub ~ Ranvijay



Format                                   : Matroska
Format version                           : Version 4 / Version 2
File size                                : 1.21 GiB
Duration                                 : 1 h 53 min
Overall bit rate                         : 1 520 kb/s
Movie name                               : The Foreigner 2017 720p BRRip x264 Dual Audio [Hindi DD5.1 - English] - Esub ~ Ranvijay

Video
ID                                       : 2
Duration                                 : 1 h 53 min
Bit rate                                 : 1 226 kb/s
Width                                    : 1 280 pixels
Height                                   : 536 pixels
Display aspect ratio                     : 2.40:1
Frame rate mode                          : Constant
Frame rate                               : 23.976 (24000/1001) FPS
Stream size                              : 998 MiB (81%)
Title                                    : ~Ranvijay~
Default                                  : Yes
Forced                                   : No

Audio #1
ID                                       : 3
Format                                   : AC-3
Format/Info                              : Audio Coding 3
Codec ID                                 : A_AC3
Duration                                 : 1 h 53 min
Bit rate mode                            : Constant
Bit rate                                 : 192 kb/s
Channel(s)                               : 6 channels
Channel positions                        : Front: L C R, Side: L R, LFE
Sampling rate                            : 44.1 kHz
Frame rate                               : 28.711 FPS (1536 SPF)
Bit depth                                : 16 bits
Compression mode                         : Lossy
Stream size                              : 156 MiB (13%)
Title                                    : ~Ranvijay~
Language                                 : Hindi
Service kind                             : Complete Main
Default                                  : Yes
Forced                                   : No

Audio #2
ID                                       : 4
Format                                   : AAC
Format/Info                              : Advanced Audio Codec
Format profile                           : HE-AAC / LC
Format settings                          : Explicit
Codec ID                                 : A_AAC-2
Duration                                 : 1 h 53 min
Bit rate                                 : 100.0 kb/s
Channel(s)                               : 2 channels
Channel positions                        : Front: L R
Sampling rate                            : 48.0 kHz / 24.0 kHz
Frame rate                               : 23.438 FPS (1024 SPF)
Compression mode                         : Lossy
Delay relative to video                  : 31 ms
Stream size                              : 81.4 MiB (7%)
Title                                    : ~Ranvijay~
Language                                 : English
Default                                  : No
Forced                                   : No

Text
ID                                       : 1
Format                                   : UTF-8
Codec ID                                 : S_TEXT/UTF8
Codec ID/Info                            : UTF-8 Plain Text
Duration                                 : 1 h 44 min
Bit rate                                 : 53 b/s
Count of elements                        : 1144
Stream size                              : 41.1 KiB (0%)
Title                                    : ~Ranvijay~
Language                                 : English
Default                                  : Yes
Forced                                   : No

               
Category:Movies > Hollywood Dub
Lang:Hindi
Total Size:1.23 GB

:download:

|| Download This Movie Via Single Resumable Links Size: 1.21 GB ||

Direct-1 Google Drive | Direct-2 | Direct-3 |

Watch Online Click Here

No comments:

Post a Comment