The Giver (2014) BRRip 720p x264 Dual Audio [Hindi + English] AAC Esub


Poster


iMDB
Imdb Picture Title: The Giver
Year: 2014
Runtime: 97 minutes
Votes: 98270
Rating: 6.5/10
Language: English
Country: South Africa, Canada, USA
All Genres: Drama, Romance, Sci-Fi
Plot Outline: In a seemingly perfect community, without war, pain, suffering, differences or choice, a young boy is chosen to learn from an elderly man about the true pain and pleasure of the "real" world.
Tagline: Search for truth. Find freedom.
Director: Phillip Noyce
Writing By: Michael Mitnick,Robert B. Weide,Lois Lowry,
Produced By: Scooter Braun,Jeff Bridges,Ron Burkle,Micheal Flaherty,Genevieve Hofmeyr,Noga Isackson,Neil Koenigsberg,Alison Owen,Dylan Sellers,Nikki Silver,Janine van Assen,Bob Weinstein,Harvey Weinstein,Ralph Winter,
Music: Marco Beltrami
Cast:
Jeff Bridges as The Giver
Meryl Streep as Chief Elder
Brenton Thwaites as Jonas
Alexander SkarsgÄrd as Father
Katie Holmes as Mother
Odeya Rush as Fiona
Cameron Monaghan as Asher
Taylor Swift as Rosemary
Emma Tremblay as Lilly
Alexander Jillings as Gabriel 12 Months
Trailers:
Exclusive TV Spot
Trailer #2
Trailer #1


Details
Name:The Giver 2014 720p Esub BlyRay Dual Audio English Hindi GOPISAHI
Description:

Format                         : Matroska
Format version                 : Version 4 / Version 2
File size                      : 541 MiB
Duration                       : 1 h 37 min
Overall bit rate               : 777 kb/s
Movie name                     : The Giver 2014 GOPISAHI

Video
Format                         : AVC
Codec ID                       : V_MPEG4/ISO/AVC
Duration                       : 1 h 37 min
Bit rate                       : 600 kb/s
Width                          : 1 280 pixels
Height                         : 536 pixels
Display aspect ratio           : 2.40:1
Frame rate mode                : Constant
Frame rate                     : 23.976 (24000/1001) FPS
Stream size                    : 417 MiB (77%)
Writing library                : x264 core 155 r2893 b00bcaf

Audio #1
Format                         : AAC
Duration                       : 1 h 37 min
Bit rate                       : 85.4 kb/s
Channel(s)                     : 6 channels
Channel positions              : Front: L C R, Side: L R, LFE
Sampling rate                  : 44.1 kHz
Frame rate                     : 43.066 FPS (1024 SPF)
Compression mode               : Lossy
Stream size                    : 59.4 MiB (11%)
Language                       : English

Audio #2
Format                         : AAC
Duration                       : 1 h 37 min
Bit rate                       : 89.8 kb/s
Channel(s)                     : 6 channels
Channel positions              : Front: L C R, Side: L R, LFE
Sampling rate                  : 44.1 kHz
Frame rate                     : 43.066 FPS (1024 SPF)
Compression mode               : Lossy
Stream size                    : 62.5 MiB (12%)
Language                       : Hindi

Text
Language                       : English


Category:Movies > Hollywood Dub
Lang:Hindi
Total Size:540.82 MB



:download:

|| Download This Movie Via Single Resumable Links Size: 541 MB ||

Direct-1 Google Drive | Direct-2 | Direct-3 |

Watch Online Click Here

Post a Comment

0 Comments