STAY WITH US

header ads

The House Next Door (2017) 720p HDRip Dual Audio Org DD 5.1 [Hindi + Tamil]


Poster


iMDB
Imdb Picture Title: The House Next Door
Year: 2017
Runtime: 137 minutes
Votes: 162
Rating: 7.9/10
Language: Telugu, Tamil, Hindi
Country: India
All Genres: Horror
Plot Outline: A happy couple faces horror when a family moves into the neighborhood.
Director: Milind Rau
Writing By: Rahul Ramchandani,Milind Rau,Siddharth,
Produced By: Siddharth,
Music: Girishh Gopalakrishnan
Cast:
Siddharth as
Andrea Jeremiah as
Atul Kulkarni as
Khushi Hajare as Sarah
Anisha Victor as Jenny
Manav Vij as
Trailers:
Official 'The House Next Door' Trailer (Hindi)


Details
Name:The House Next Door (2017) Hindi Original 720p HDRip x264 AC3 5.1 1.4GB ESubs
Description:
The House Next Door (2017) 720p HDRip - Dual Audio [Hindi (Original)+Tamil] DD 5.1

 
 
General

Format                                   : Matroska
Format version                           : Version 4 / Version 2
File size                                : 1.61 GiB
Duration                                 : 2 h 14 min
Overall bit rate                         : 1 704 kb/s


Video
ID                                       : 1
Format                                   : AVC
Format/Info                              : Advanced Video Codec
Format profile                           : Main@L3.1
Format settings                          : CABAC / 4 Ref Frames
Format settings, CABAC                   : Yes
Format settings, RefFrames               : 4 frames
Codec ID                                 : V_MPEG4/ISO/AVC
Duration                                 : 2 h 14 min
Bit rate                                 : 1 319 kb/s
Width                                    : 1 280 pixels
Height                                   : 544 pixels
Display aspect ratio                     : 2.35:1
Frame rate mode                          : Constant
Frame rate                               : 24.000 FPS
Color space                              : YUV
Chroma subsampling                       : 4:2:0
Bit depth                                : 8 bits
Scan type                                : Progressive
Bits/(Pixel*Frame)                       : 0.079
Language                                 : English
Default                                  : Yes
Forced                                   : No

Audio #1
ID                                       : 2
Format                                   : E-AC-3
Format/Info                              : Enhanced Audio Coding 3
Codec ID                                 : A_EAC3
Duration                                 : 2 h 14 min
Bit rate mode                            : Constant
Bit rate                                 : 192 kb/s
Channel(s)                               : 6 channels
Channel positions                        : Front: L C R, Side: L R, LFE
Sampling rate                            : 48.0 kHz
Frame rate                               : 187.500 FPS (256 SPF)
Compression mode                         : Lossy
Stream size                              : 185 MiB (11%)
Language                                 : Hindi
Service kind                             : Complete Main
Default                                  : No
Forced                                   : No

Audio #2
ID                                       : 3
Format                                   : E-AC-3
Format/Info                              : Enhanced Audio Coding 3
Codec ID                                 : A_EAC3
Duration                                 : 2 h 14 min
Bit rate mode                            : Constant
Bit rate                                 : 192 kb/s
Channel(s)                               : 6 channels
Channel positions                        : Front: L C R, Side: L R, LFE
Sampling rate                            : 48.0 kHz
Frame rate                               : 187.500 FPS (256 SPF)
Compression mode                         : Lossy
Stream size                              : 185 MiB (11%)
Language                                 : Tamil
Service kind                             : Complete Main
Default                                  : Yes
Forced                                   : No

                               
Category:Movies > Bollywood
Lang:Hindi
Total Size:1.62 GB

Sample
:download:

|| Download This Movie Via Single Resumable Links Size: 1.61 GB ||

Direct-1 Google Drive | Direct-2 | Direct-3 |

Watch Online Click Here

Post a Comment

0 Comments